<?xml version="1.0" standalone="no"?>
<!DOCTYPE svg PUBLIC "-//W3C//DTD SVG 1.1//EN" "http://www.w3.org/Graphics/SVG/1.1/DTD/svg11.dtd" >
<svg xmlns="http://www.w3.org/2000/svg" xmlns:xlink="http://www.w3.org/1999/xlink" version="1.1">
<metadata>
Created by FontForge 20170731 at Wed May 31 05:49:30 2017
 By Aleksey,,,
(c) 2015-2017 Apple Inc. All rights reserved.
</metadata>
<defs>
<font id="SFProDisplay-Light" horiz-adv-x="1674" >
  <font-face 
    font-family="SF Pro Display"
    font-weight="300"
    font-stretch="normal"
    units-per-em="2048"
    panose-1="0 0 4 0 0 0 0 0 0 0"
    ascent="1638"
    descent="-410"
    x-height="1040"
    cap-height="1443"
    bbox="-516 -494 2508 2169"
    underline-thickness="95"
    underline-position="-557"
    unicode-range="U+0020-1F189"
  />
<missing-glyph horiz-adv-x="2048" 
d="M100 -494v308h1848v-308h-1848zM100 -67v308h1848v-308h-1848zM100 361v307h1848v-307h-1848zM100 788v307h1848v-307h-1848zM100 1215v308h1848v-308h-1848zM100 1642v308h1848v-308h-1848z" />
    <glyph glyph-name="uni2460" unicode="&#x31;&#x20dd;" 
d="M918 382h-102v589h-6l-170 -114v95l176 118h102v-688zM837 54q133 0 253.5 52t206.5 139.5t136.5 208.5t50.5 254t-50.5 253.5t-136.5 208t-206.5 139.5t-253.5 52t-253.5 -52t-206.5 -139.5t-136.5 -208t-50.5 -253.5t50.5 -254t136.5 -208.5t206.5 -139.5t253.5 -52z
M837 -46q-153 0 -292.5 60t-240.5 161t-161 241t-60 292q0 153 60 292.5t161 241t240.5 161.5t292.5 60t292.5 -60t240.5 -161.5t161 -241t60 -292.5q0 -152 -60 -292t-161 -241t-240.5 -161t-292.5 -60z" />
    <glyph glyph-name="uni2461" unicode="&#x32;&#x20dd;" 
d="M702 876h-99v4q0 84 63.5 144t171.5 60q103 0 166 -53.5t63 -136.5q0 -56 -29 -101.5t-93 -113.5l-193 -209v-5h331v-83h-473v63l272 290q41 44 62 78.5t21 73.5q0 51 -36 83.5t-93 32.5q-60 0 -97 -35.5t-37 -87.5v-4zM837 54q133 0 253.5 52t206.5 139.5t136.5 208.5
t50.5 254t-50.5 253.5t-136.5 208t-206.5 139.5t-253.5 52t-253.5 -52t-206.5 -139.5t-136.5 -208t-50.5 -253.5t50.5 -254t136.5 -208.5t206.5 -139.5t253.5 -52zM837 -46q-153 0 -292.5 60t-240.5 161t-161 241t-60 292q0 153 60 292.5t161 241t240.5 161.5t292.5 60
t292.5 -60t240.5 -161.5t161 -241t60 -292.5q0 -152 -60 -292t-161 -241t-240.5 -161t-292.5 -60z" />
    <glyph glyph-name="uni2462" unicode="&#x33;&#x20dd;" 
d="M759 698v79h78q56 0 93.5 33t37.5 83q-1 49 -38 80.5t-95 31.5q-55 0 -92.5 -29.5t-40.5 -70.5h-96q2 76 65 127t166 52q103 0 167 -50t66 -127q1 -65 -41.5 -109t-94.5 -53v-6q62 -6 110 -50.5t49 -117.5q1 -91 -73 -147t-185 -56q-107 0 -173.5 52t-71.5 130h96
q4 -43 46.5 -72.5t102.5 -29.5q69 0 112.5 35.5t43.5 91.5q-2 53 -43.5 88t-106.5 35h-82zM837 54q133 0 253.5 52t206.5 139.5t136.5 208.5t50.5 254t-50.5 253.5t-136.5 208t-206.5 139.5t-253.5 52t-253.5 -52t-206.5 -139.5t-136.5 -208t-50.5 -253.5t50.5 -254
t136.5 -208.5t206.5 -139.5t253.5 -52zM837 -46q-153 0 -292.5 60t-240.5 161t-161 241t-60 292q0 153 60 292.5t161 241t240.5 161.5t292.5 60t292.5 -60t240.5 -161.5t161 -241t60 -292.5q0 -152 -60 -292t-161 -241t-240.5 -161t-292.5 -60z" />
    <glyph glyph-name="uni2463" unicode="&#x34;&#x20dd;" 
d="M835 1070h151v-465h97v-82h-97v-141h-97v141h-349v85q27 47 69 114.5t72 113.5t84.5 129t69.5 105zM638 605h251v387h-6q-166 -242 -245 -383v-4zM837 54q133 0 253.5 52t206.5 139.5t136.5 208.5t50.5 254t-50.5 253.5t-136.5 208t-206.5 139.5t-253.5 52t-253.5 -52
t-206.5 -139.5t-136.5 -208t-50.5 -253.5t50.5 -254t136.5 -208.5t206.5 -139.5t253.5 -52zM837 -46q-153 0 -292.5 60t-240.5 161t-161 241t-60 292q0 153 60 292.5t161 241t240.5 161.5t292.5 60t292.5 -60t240.5 -161.5t161 -241t60 -292.5q0 -152 -60 -292t-161 -241
t-240.5 -161t-292.5 -60z" />
    <glyph glyph-name="uni2464" unicode="&#x35;&#x20dd;" 
d="M596 549h96q9 -46 51 -73t97 -27q64 0 109.5 43t45.5 113q0 65 -44 106t-109 41q-91 0 -141 -76h-91l32 395h416v-82h-332l-19 -225h5q19 27 60 47t94 20q98 0 164 -61t66 -162q0 -107 -72.5 -173.5t-188.5 -66.5q-100 0 -167 51.5t-72 129.5zM837 54q133 0 253.5 52
t206.5 139.5t136.5 208.5t50.5 254t-50.5 253.5t-136.5 208t-206.5 139.5t-253.5 52t-253.5 -52t-206.5 -139.5t-136.5 -208t-50.5 -253.5t50.5 -254t136.5 -208.5t206.5 -139.5t253.5 -52zM837 -46q-153 0 -292.5 60t-240.5 161t-161 241t-60 292q0 153 60 292.5t161 241
t240.5 161.5t292.5 60t292.5 -60t240.5 -161.5t161 -241t60 -292.5q0 -152 -60 -292t-161 -241t-240.5 -161t-292.5 -60z" />
    <glyph glyph-name="uni2465" unicode="&#x36;&#x20dd;" 
d="M1075 923h-99q-10 33 -44.5 56t-85.5 23q-81 0 -129 -75t-47 -206v-3h6q21 47 69.5 78t119.5 31q93 0 159.5 -60.5t66.5 -160.5q0 -109 -70.5 -173.5t-183.5 -64.5q-148 0 -217 113q-49 81 -49 224q0 185 73.5 281t203.5 96q95 0 157.5 -48t69.5 -111zM685 601
q0 -68 43.5 -110t109.5 -42q68 0 110.5 40t42.5 111q0 69 -43.5 109t-108.5 40q-67 0 -110.5 -41.5t-43.5 -106.5zM837 54q133 0 253.5 52t206.5 139.5t136.5 208.5t50.5 254t-50.5 253.5t-136.5 208t-206.5 139.5t-253.5 52t-253.5 -52t-206.5 -139.5t-136.5 -208
t-50.5 -253.5t50.5 -254t136.5 -208.5t206.5 -139.5t253.5 -52zM837 -46q-153 0 -292.5 60t-240.5 161t-161 241t-60 292q0 153 60 292.5t161 241t240.5 161.5t292.5 60t292.5 -60t240.5 -161.5t161 -241t60 -292.5q0 -152 -60 -292t-161 -241t-240.5 -161t-292.5 -60z" />
    <glyph glyph-name="uni2466" unicode="&#x37;&#x20dd;" 
d="M614 1064h473v-85l-296 -604h-109l300 600v6h-368v83zM837 54q133 0 253.5 52t206.5 139.5t136.5 208.5t50.5 254t-50.5 253.5t-136.5 208t-206.5 139.5t-253.5 52t-253.5 -52t-206.5 -139.5t-136.5 -208t-50.5 -253.5t50.5 -254t136.5 -208.5t206.5 -139.5t253.5 -52z
M837 -46q-153 0 -292.5 60t-240.5 161t-161 241t-60 292q0 153 60 292.5t161 241t240.5 161.5t292.5 60t292.5 -60t240.5 -161.5t161 -241t60 -292.5q0 -152 -60 -292t-161 -241t-240.5 -161t-292.5 -60z" />
    <glyph glyph-name="uni2467" unicode="&#x38;&#x20dd;" 
d="M838 444q71 0 116.5 37t45.5 95q0 57 -45.5 93.5t-116.5 36.5t-117.5 -37t-46.5 -93q0 -58 46.5 -95t117.5 -37zM838 778q59 0 97.5 32.5t38.5 83.5q0 50 -38 82t-98 32t-98.5 -32t-38.5 -82q0 -51 38.5 -83.5t98.5 -32.5zM836 368q-117 0 -190 56t-73 147q0 63 42 111
t108 61v5q-56 17 -89 58.5t-33 95.5q0 79 66.5 130.5t170.5 51.5q103 0 169.5 -51.5t66.5 -130.5q0 -54 -33.5 -96t-88.5 -58v-5q66 -13 108 -61t42 -111q0 -90 -74 -146.5t-192 -56.5zM837 54q133 0 253.5 52t206.5 139.5t136.5 208.5t50.5 254t-50.5 253.5t-136.5 208
t-206.5 139.5t-253.5 52t-253.5 -52t-206.5 -139.5t-136.5 -208t-50.5 -253.5t50.5 -254t136.5 -208.5t206.5 -139.5t253.5 -52zM837 -46q-153 0 -292.5 60t-240.5 161t-161 241t-60 292q0 153 60 292.5t161 241t240.5 161.5t292.5 60t292.5 -60t240.5 -161.5t161 -241
t60 -292.5q0 -152 -60 -292t-161 -241t-240.5 -161t-292.5 -60z" />
    <glyph glyph-name="uni2468" unicode="&#x39;&#x20dd;" 
d="M583 850q0 106 72 169.5t183 63.5q118 0 191.5 -79.5t73.5 -255.5q0 -187 -70.5 -283t-207.5 -96q-94 0 -154.5 45.5t-69.5 109.5h99q9 -31 44 -53t83 -22q90 0 135.5 77.5t42.5 205.5h-5q-21 -49 -69.5 -79.5t-118.5 -30.5q-97 0 -163 62.5t-66 165.5zM988 850
q0 69 -43.5 111.5t-110.5 42.5q-65 0 -108 -42t-43 -110q0 -70 43 -111t109 -41t109.5 40.5t43.5 109.5zM837 54q133 0 253.5 52t206.5 139.5t136.5 208.5t50.5 254t-50.5 253.5t-136.5 208t-206.5 139.5t-253.5 52t-253.5 -52t-206.5 -139.5t-136.5 -208t-50.5 -253.5
t50.5 -254t136.5 -208.5t206.5 -139.5t253.5 -52zM837 -46q-153 0 -292.5 60t-240.5 161t-161 241t-60 292q0 153 60 292.5t161 241t240.5 161.5t292.5 60t292.5 -60t240.5 -161.5t161 -241t60 -292.5q0 -152 -60 -292t-161 -241t-240.5 -161t-292.5 -60z" />
    <glyph glyph-name="uni24B6" unicode="A&#x20dd;" 
d="M725 673h225l-109 312h-8zM631 398h-104l251 688h118l251 -688h-104l-69 199h-273zM837 54q133 0 253.5 52t206.5 139.5t136.5 208.5t50.5 254t-50.5 253.5t-136.5 208t-206.5 139.5t-253.5 52t-253.5 -52t-206.5 -139.5t-136.5 -208t-50.5 -253.5t50.5 -254
t136.5 -208.5t206.5 -139.5t253.5 -52zM837 -46q-153 0 -292.5 60t-240.5 161t-161 241t-60 292q0 153 60 292.5t161 241t240.5 161.5t292.5 60t292.5 -60t240.5 -161.5t161 -241t60 -292.5q0 -152 -60 -292t-161 -241t-240.5 -161t-292.5 -60z" />
    <glyph glyph-name="uni24B7" unicode="B&#x20dd;" 
d="M607 381v689h277q94 0 150 -47t56 -123q0 -60 -32.5 -100t-85.5 -53v-4q70 -9 113.5 -53.5t43.5 -116.5q0 -90 -67 -141t-179 -51h-276zM708 991v-219h125q76 0 116 29.5t40 81.5q0 51 -33.5 79.5t-93.5 28.5h-154zM708 698v-238h134q94 0 138 29t44 88q0 57 -38.5 89
t-108.5 32h-169zM837 54q133 0 253.5 52t206.5 139.5t136.5 208.5t50.5 254t-50.5 253.5t-136.5 208t-206.5 139.5t-253.5 52t-253.5 -52t-206.5 -139.5t-136.5 -208t-50.5 -253.5t50.5 -254t136.5 -208.5t206.5 -139.5t253.5 -52zM837 -46q-153 0 -292.5 60t-240.5 161
t-161 241t-60 292q0 153 60 292.5t161 241t240.5 161.5t292.5 60t292.5 -60t240.5 -161.5t161 -241t60 -292.5q0 -152 -60 -292t-161 -241t-240.5 -161t-292.5 -60z" />
    <glyph glyph-name="uni24B8" unicode="C&#x20dd;" 
d="M1025 588h104q-14 -101 -93.5 -162.5t-197.5 -61.5q-142 0 -229 99t-87 259t87 259t229 99q120 0 200.5 -64.5t91.5 -168.5h-102q-8 65 -60.5 107t-127.5 42q-96 0 -155.5 -76t-59.5 -198q0 -123 59.5 -198.5t155.5 -75.5q74 0 125 39.5t60 100.5zM837 54q133 0 253.5 52
t206.5 139.5t136.5 208.5t50.5 254t-50.5 253.5t-136.5 208t-206.5 139.5t-253.5 52t-253.5 -52t-206.5 -139.5t-136.5 -208t-50.5 -253.5t50.5 -254t136.5 -208.5t206.5 -139.5t253.5 -52zM837 -46q-153 0 -292.5 60t-240.5 161t-161 241t-60 292q0 153 60 292.5t161 241
t240.5 161.5t292.5 60t292.5 -60t240.5 -161.5t161 -241t60 -292.5q0 -152 -60 -292t-161 -241t-240.5 -161t-292.5 -60z" />
    <glyph glyph-name="uni24B9" unicode="D&#x20dd;" 
d="M603 1062h238q155 0 236 -88t81 -250q0 -165 -81 -253.5t-236 -88.5h-238v680zM706 980v-515h123q222 0 222 257q0 126 -56.5 192t-165.5 66h-123zM837 54q133 0 253.5 52t206.5 139.5t136.5 208.5t50.5 254t-50.5 253.5t-136.5 208t-206.5 139.5t-253.5 52t-253.5 -52
t-206.5 -139.5t-136.5 -208t-50.5 -253.5t50.5 -254t136.5 -208.5t206.5 -139.5t253.5 -52zM837 -46q-153 0 -292.5 60t-240.5 161t-161 241t-60 292q0 153 60 292.5t161 241t240.5 161.5t292.5 60t292.5 -60t240.5 -161.5t161 -241t60 -292.5q0 -152 -60 -292t-161 -241
t-240.5 -161t-292.5 -60z" />
    <glyph glyph-name="uni24BA" unicode="E&#x20dd;" 
d="M1064 461v-83h-445v688h445v-82h-343v-216h324v-80h-324v-227h343zM837 54q133 0 253.5 52t206.5 139.5t136.5 208.5t50.5 254t-50.5 253.5t-136.5 208t-206.5 139.5t-253.5 52t-253.5 -52t-206.5 -139.5t-136.5 -208t-50.5 -253.5t50.5 -254t136.5 -208.5t206.5 -139.5
t253.5 -52zM837 -46q-153 0 -292.5 60t-240.5 161t-161 241t-60 292q0 153 60 292.5t161 241t240.5 161.5t292.5 60t292.5 -60t240.5 -161.5t161 -241t60 -292.5q0 -152 -60 -292t-161 -241t-240.5 -161t-292.5 -60z" />
    <glyph glyph-name="uni24BB" unicode="F&#x20dd;" 
d="M750 378h-103v688h439v-83h-336v-229h308v-82h-308v-294zM837 54q133 0 253.5 52t206.5 139.5t136.5 208.5t50.5 254t-50.5 253.5t-136.5 208t-206.5 139.5t-253.5 52t-253.5 -52t-206.5 -139.5t-136.5 -208t-50.5 -253.5t50.5 -254t136.5 -208.5t206.5 -139.5t253.5 -52
zM837 -46q-153 0 -292.5 60t-240.5 161t-161 241t-60 292q0 153 60 292.5t161 241t240.5 161.5t292.5 60t292.5 -60t240.5 -161.5t161 -241t60 -292.5q0 -152 -60 -292t-161 -241t-240.5 -161t-292.5 -60z" />
    <glyph glyph-name="uni24BC" unicode="G&#x20dd;" 
d="M1027 608v51h-182v77h280v-107q0 -120 -75 -192.5t-210 -72.5q-142 0 -230 99t-88 259t88 259t230 99q117 0 196 -61.5t93 -161.5h-102q-10 61 -61.5 100t-124.5 39q-97 0 -156.5 -75.5t-59.5 -198.5t59.5 -198.5t156.5 -75.5q88 0 137 43t49 117zM837 54q133 0 253.5 52
t206.5 139.5t136.5 208.5t50.5 254t-50.5 253.5t-136.5 208t-206.5 139.5t-253.5 52t-253.5 -52t-206.5 -139.5t-136.5 -208t-50.5 -253.5t50.5 -254t136.5 -208.5t206.5 -139.5t253.5 -52zM837 -46q-153 0 -292.5 60t-240.5 161t-161 241t-60 292q0 153 60 292.5t161 241
t240.5 161.5t292.5 60t292.5 -60t240.5 -161.5t161 -241t60 -292.5q0 -152 -60 -292t-161 -241t-240.5 -161t-292.5 -60z" />
    <glyph glyph-name="uni24BD" unicode="H&#x20dd;" 
d="M1117 378h-102v313h-355v-313h-103v688h103v-292h355v292h102v-688zM837 54q133 0 253.5 52t206.5 139.5t136.5 208.5t50.5 254t-50.5 253.5t-136.5 208t-206.5 139.5t-253.5 52t-253.5 -52t-206.5 -139.5t-136.5 -208t-50.5 -253.5t50.5 -254t136.5 -208.5t206.5 -139.5
t253.5 -52zM837 -46q-153 0 -292.5 60t-240.5 161t-161 241t-60 292q0 153 60 292.5t161 241t240.5 161.5t292.5 60t292.5 -60t240.5 -161.5t161 -241t60 -292.5q0 -152 -60 -292t-161 -241t-240.5 -161t-292.5 -60z" />
    <glyph glyph-name="uni24BE" unicode="I&#x20dd;" 
d="M889 378h-104v688h104v-688zM837 54q133 0 253.5 52t206.5 139.5t136.5 208.5t50.5 254t-50.5 253.5t-136.5 208t-206.5 139.5t-253.5 52t-253.5 -52t-206.5 -139.5t-136.5 -208t-50.5 -253.5t50.5 -254t136.5 -208.5t206.5 -139.5t253.5 -52zM837 -46q-153 0 -292.5 60
t-240.5 161t-161 241t-60 292q0 153 60 292.5t161 241t240.5 161.5t292.5 60t292.5 -60t240.5 -161.5t161 -241t60 -292.5q0 -152 -60 -292t-161 -241t-240.5 -161t-292.5 -60z" />
    <glyph glyph-name="uni24BF" unicode="J&#x20dd;" 
d="M587 557h100q1 -46 33.5 -75t83.5 -29q57 0 87.5 34t30.5 94v485h102v-482q0 -103 -59 -161t-161 -58q-99 0 -157.5 54.5t-59.5 137.5zM837 54q133 0 253.5 52t206.5 139.5t136.5 208.5t50.5 254t-50.5 253.5t-136.5 208t-206.5 139.5t-253.5 52t-253.5 -52
t-206.5 -139.5t-136.5 -208t-50.5 -253.5t50.5 -254t136.5 -208.5t206.5 -139.5t253.5 -52zM837 -46q-153 0 -292.5 60t-240.5 161t-161 241t-60 292q0 153 60 292.5t161 241t240.5 161.5t292.5 60t292.5 -60t240.5 -161.5t161 -241t60 -292.5q0 -152 -60 -292t-161 -241
t-240.5 -161t-292.5 -60z" />
    <glyph glyph-name="uni24C0" unicode="K&#x20dd;" 
d="M1127 1066l-270 -294l285 -394h-127l-234 326l-87 -91v-235h-102v688h102v-332h5l310 332h118zM837 54q133 0 253.5 52t206.5 139.5t136.5 208.5t50.5 254t-50.5 253.5t-136.5 208t-206.5 139.5t-253.5 52t-253.5 -52t-206.5 -139.5t-136.5 -208t-50.5 -253.5t50.5 -254
t136.5 -208.5t206.5 -139.5t253.5 -52zM837 -46q-153 0 -292.5 60t-240.5 161t-161 241t-60 292q0 153 60 292.5t161 241t240.5 161.5t292.5 60t292.5 -60t240.5 -161.5t161 -241t60 -292.5q0 -152 -60 -292t-161 -241t-240.5 -161t-292.5 -60z" />
    <glyph glyph-name="uni24C1" unicode="L&#x20dd;" 
d="M1093 463v-85h-433v688h103v-603h330zM837 54q133 0 253.5 52t206.5 139.5t136.5 208.5t50.5 254t-50.5 253.5t-136.5 208t-206.5 139.5t-253.5 52t-253.5 -52t-206.5 -139.5t-136.5 -208t-50.5 -253.5t50.5 -254t136.5 -208.5t206.5 -139.5t253.5 -52zM837 -46
q-153 0 -292.5 60t-240.5 161t-161 241t-60 292q0 153 60 292.5t161 241t240.5 161.5t292.5 60t292.5 -60t240.5 -161.5t161 -241t60 -292.5q0 -152 -60 -292t-161 -241t-240.5 -161t-292.5 -60z" />
    <glyph glyph-name="uni24C2" unicode="M&#x20dd;" 
d="M591 378h-92v688h109l228 -564h4l227 564h108v-688h-92v521h-6l-201 -507h-78l-201 507h-6v-521zM837 54q133 0 253.5 52t206.5 139.5t136.5 208.5t50.5 254t-50.5 253.5t-136.5 208t-206.5 139.5t-253.5 52t-253.5 -52t-206.5 -139.5t-136.5 -208t-50.5 -253.5
t50.5 -254t136.5 -208.5t206.5 -139.5t253.5 -52zM837 -46q-153 0 -292.5 60t-240.5 161t-161 241t-60 292q0 153 60 292.5t161 241t240.5 161.5t292.5 60t292.5 -60t240.5 -161.5t161 -241t60 -292.5q0 -152 -60 -292t-161 -241t-240.5 -161t-292.5 -60z" />
    <glyph glyph-name="uni24C3" unicode="N&#x20dd;" 
d="M658 378h-98v688h95l356 -527h5v527h98v-688h-95l-356 529h-5v-529zM837 54q133 0 253.5 52t206.5 139.5t136.5 208.5t50.5 254t-50.5 253.5t-136.5 208t-206.5 139.5t-253.5 52t-253.5 -52t-206.5 -139.5t-136.5 -208t-50.5 -253.5t50.5 -254t136.5 -208.5t206.5 -139.5
t253.5 -52zM837 -46q-153 0 -292.5 60t-240.5 161t-161 241t-60 292q0 153 60 292.5t161 241t240.5 161.5t292.5 60t292.5 -60t240.5 -161.5t161 -241t60 -292.5q0 -152 -60 -292t-161 -241t-240.5 -161t-292.5 -60z" />
    <glyph glyph-name="uni24C4" unicode="O&#x20dd;" 
d="M837 448q96 0 156.5 74t60.5 200t-60.5 200t-156.5 74t-157 -74t-61 -200t61 -200t157 -74zM837 364q-140 0 -230.5 96.5t-90.5 261.5t90.5 261.5t230.5 96.5t230.5 -97t90.5 -261t-90.5 -261t-230.5 -97zM837 54q133 0 253.5 52t206.5 139.5t136.5 208.5t50.5 254
t-50.5 253.5t-136.5 208t-206.5 139.5t-253.5 52t-253.5 -52t-206.5 -139.5t-136.5 -208t-50.5 -253.5t50.5 -254t136.5 -208.5t206.5 -139.5t253.5 -52zM837 -46q-153 0 -292.5 60t-240.5 161t-161 241t-60 292q0 153 60 292.5t161 241t240.5 161.5t292.5 60t292.5 -60
t240.5 -161.5t161 -241t60 -292.5q0 -152 -60 -292t-161 -241t-240.5 -161t-292.5 -60z" />
    <glyph glyph-name="uni24C5" unicode="P&#x20dd;" 
d="M893 1066q105 0 168.5 -61.5t63.5 -157.5q0 -97 -63 -158t-169 -61h-165v-250h-102v688h267zM1020 847q0 64 -38 101t-103 37h-151v-276h151q65 0 103 37t38 101zM837 54q133 0 253.5 52t206.5 139.5t136.5 208.5t50.5 254t-50.5 253.5t-136.5 208t-206.5 139.5
t-253.5 52t-253.5 -52t-206.5 -139.5t-136.5 -208t-50.5 -253.5t50.5 -254t136.5 -208.5t206.5 -139.5t253.5 -52zM837 -46q-153 0 -292.5 60t-240.5 161t-161 241t-60 292q0 153 60 292.5t161 241t240.5 161.5t292.5 60t292.5 -60t240.5 -161.5t161 -241t60 -292.5
q0 -152 -60 -292t-161 -241t-240.5 -161t-292.5 -60z" />
    <glyph glyph-name="uni24C6" unicode="Q&#x20dd;" 
d="M1122 303h-102l-62 84q-55 -23 -121 -23q-140 0 -230.5 96.5t-90.5 261.5t90.5 261.5t230.5 96.5t230.5 -97t90.5 -261q0 -196 -127 -295zM837 448q38 0 68 12l-88 122h101l57 -78q79 74 79 218q0 126 -60.5 200t-156.5 74t-157 -74t-61 -200t61 -200t157 -74zM837 54
q133 0 253.5 52t206.5 139.5t136.5 208.5t50.5 254t-50.5 253.5t-136.5 208t-206.5 139.5t-253.5 52t-253.5 -52t-206.5 -139.5t-136.5 -208t-50.5 -253.5t50.5 -254t136.5 -208.5t206.5 -139.5t253.5 -52zM837 -46q-153 0 -292.5 60t-240.5 161t-161 241t-60 292
q0 153 60 292.5t161 241t240.5 161.5t292.5 60t292.5 -60t240.5 -161.5t161 -241t60 -292.5q0 -152 -60 -292t-161 -241t-240.5 -161t-292.5 -60z" />
    <glyph glyph-name="uni24C7" unicode="R&#x20dd;" 
d="M866 1066q109 0 173 -57.5t64 -152.5q0 -72 -40 -123.5t-102 -70.5l153 -284h-115l-140 269h-159v-269h-101v688h267zM700 725h151q68 0 107 34t39 94q0 62 -39 97.5t-104 35.5h-154v-261zM837 54q133 0 253.5 52t206.5 139.5t136.5 208.5t50.5 254t-50.5 253.5
t-136.5 208t-206.5 139.5t-253.5 52t-253.5 -52t-206.5 -139.5t-136.5 -208t-50.5 -253.5t50.5 -254t136.5 -208.5t206.5 -139.5t253.5 -52zM837 -46q-153 0 -292.5 60t-240.5 161t-161 241t-60 292q0 153 60 292.5t161 241t240.5 161.5t292.5 60t292.5 -60t240.5 -161.5
t161 -241t60 -292.5q0 -152 -60 -292t-161 -241t-240.5 -161t-292.5 -60z" />
    <glyph glyph-name="uni24C8" unicode="S&#x20dd;" 
d="M564 567h101q5 -53 54 -87.5t120 -34.5q72 0 118.5 33.5t46.5 84.5q0 78 -130 110l-115 26q-175 43 -175 182q0 89 71.5 144.5t184.5 55.5q112 0 183 -54t72 -142h-98q-5 50 -49.5 83t-108.5 33t-108 -33t-44 -82q0 -35 30 -61.5t83 -38.5l114 -26q101 -24 146 -68.5
t45 -119.5q0 -95 -74 -151.5t-199 -56.5q-119 0 -192 55.5t-76 147.5zM837 54q133 0 253.5 52t206.5 139.5t136.5 208.5t50.5 254t-50.5 253.5t-136.5 208t-206.5 139.5t-253.5 52t-253.5 -52t-206.5 -139.5t-136.5 -208t-50.5 -253.5t50.5 -254t136.5 -208.5t206.5 -139.5
t253.5 -52zM837 -46q-153 0 -292.5 60t-240.5 161t-161 241t-60 292q0 153 60 292.5t161 241t240.5 161.5t292.5 60t292.5 -60t240.5 -161.5t161 -241t60 -292.5q0 -152 -60 -292t-161 -241t-240.5 -161t-292.5 -60z" />
    <glyph glyph-name="uni24C9" unicode="T&#x20dd;" 
d="M889 358h-104v604h-219v84h542v-84h-219v-604zM837 54q133 0 253.5 52t206.5 139.5t136.5 208.5t50.5 254t-50.5 253.5t-136.5 208t-206.5 139.5t-253.5 52t-253.5 -52t-206.5 -139.5t-136.5 -208t-50.5 -253.5t50.5 -254t136.5 -208.5t206.5 -139.5t253.5 -52zM837 -46
q-153 0 -292.5 60t-240.5 161t-161 241t-60 292q0 153 60 292.5t161 241t240.5 161.5t292.5 60t292.5 -60t240.5 -161.5t161 -241t60 -292.5q0 -152 -60 -292t-161 -241t-240.5 -161t-292.5 -60z" />
    <glyph glyph-name="uni24CA" unicode="U&#x20dd;" 
d="M837 428q79 0 128 46t49 125v446h102v-453q0 -113 -76.5 -181.5t-202.5 -68.5t-202.5 68.5t-76.5 181.5v453h102v-446q0 -79 49 -125t128 -46zM837 54q133 0 253.5 52t206.5 139.5t136.5 208.5t50.5 254t-50.5 253.5t-136.5 208t-206.5 139.5t-253.5 52t-253.5 -52
t-206.5 -139.5t-136.5 -208t-50.5 -253.5t50.5 -254t136.5 -208.5t206.5 -139.5t253.5 -52zM837 -46q-153 0 -292.5 60t-240.5 161t-161 241t-60 292q0 153 60 292.5t161 241t240.5 161.5t292.5 60t292.5 -60t240.5 -161.5t161 -241t60 -292.5q0 -152 -60 -292t-161 -241
t-240.5 -161t-292.5 -60z" />
    <glyph glyph-name="uni24CB" unicode="V&#x20dd;" 
d="M774 356l-253 688h118l195 -580h6l195 580h118l-253 -688h-126zM837 54q133 0 253.5 52t206.5 139.5t136.5 208.5t50.5 254t-50.5 253.5t-136.5 208t-206.5 139.5t-253.5 52t-253.5 -52t-206.5 -139.5t-136.5 -208t-50.5 -253.5t50.5 -254t136.5 -208.5t206.5 -139.5
t253.5 -52zM837 -46q-153 0 -292.5 60t-240.5 161t-161 241t-60 292q0 153 60 292.5t161 241t240.5 161.5t292.5 60t292.5 -60t240.5 -161.5t161 -241t60 -292.5q0 -152 -60 -292t-161 -241t-240.5 -161t-292.5 -60z" />
    <glyph glyph-name="uni24CC" unicode="W&#x20dd;" 
d="M837 894l-148 -538h-100l-188 688h112l129 -553h6l145 553h93l145 -553h5l129 553h112l-187 -688h-101l-148 538h-4zM837 54q133 0 253.5 52t206.5 139.5t136.5 208.5t50.5 254t-50.5 253.5t-136.5 208t-206.5 139.5t-253.5 52t-253.5 -52t-206.5 -139.5t-136.5 -208
t-50.5 -253.5t50.5 -254t136.5 -208.5t206.5 -139.5t253.5 -52zM837 -46q-153 0 -292.5 60t-240.5 161t-161 241t-60 292q0 153 60 292.5t161 241t240.5 161.5t292.5 60t292.5 -60t240.5 -161.5t161 -241t60 -292.5q0 -152 -60 -292t-161 -241t-240.5 -161t-292.5 -60z" />
    <glyph glyph-name="uni24CD" unicode="X&#x20dd;" 
d="M1124 1070l-232 -345l228 -343h-119l-173 268h-5l-174 -268h-114l228 345l-226 343h122l171 -271h6l171 271h117zM837 54q133 0 253.5 52t206.5 139.5t136.5 208.5t50.5 254t-50.5 253.5t-136.5 208t-206.5 139.5t-253.5 52t-253.5 -52t-206.5 -139.5t-136.5 -208
t-50.5 -253.5t50.5 -254t136.5 -208.5t206.5 -139.5t253.5 -52zM837 -46q-153 0 -292.5 60t-240.5 161t-161 241t-60 292q0 153 60 292.5t161 241t240.5 161.5t292.5 60t292.5 -60t240.5 -161.5t161 -241t60 -292.5q0 -152 -60 -292t-161 -241t-240.5 -161t-292.5 -60z" />
    <glyph glyph-name="uni24CE" unicode="Y&#x20dd;" 
d="M889 378h-103v282l-252 407h116l186 -309h4l186 309h113l-250 -406v-283zM837 54q133 0 253.5 52t206.5 139.5t136.5 208.5t50.5 254t-50.5 253.5t-136.5 208t-206.5 139.5t-253.5 52t-253.5 -52t-206.5 -139.5t-136.5 -208t-50.5 -253.5t50.5 -254t136.5 -208.5
t206.5 -139.5t253.5 -52zM837 -46q-153 0 -292.5 60t-240.5 161t-161 241t-60 292q0 153 60 292.5t161 241t240.5 161.5t292.5 60t292.5 -60t240.5 -161.5t161 -241t60 -292.5q0 -152 -60 -292t-161 -241t-240.5 -161t-292.5 -60z" />
    <glyph glyph-name="uni24CF" unicode="Z&#x20dd;" 
d="M574 382v70l387 529v6h-375v83h499v-70l-385 -529v-6h394v-83h-520zM837 54q133 0 253.5 52t206.5 139.5t136.5 208.5t50.5 254t-50.5 253.5t-136.5 208t-206.5 139.5t-253.5 52t-253.5 -52t-206.5 -139.5t-136.5 -208t-50.5 -253.5t50.5 -254t136.5 -208.5t206.5 -139.5
t253.5 -52zM837 -46q-153 0 -292.5 60t-240.5 161t-161 241t-60 292q0 153 60 292.5t161 241t240.5 161.5t292.5 60t292.5 -60t240.5 -161.5t161 -241t60 -292.5q0 -152 -60 -292t-161 -241t-240.5 -161t-292.5 -60z" />
    <glyph glyph-name="uni24EA" unicode="&#x23;&#x20dd;" 
d="M837 452q73 0 117 73t44 197q0 125 -44 197.5t-117 72.5t-117 -72.5t-44 -197.5q0 -124 44 -197t117 -73zM837 365q-116 0 -187.5 96t-71.5 261q0 166 71.5 262t187.5 96t187.5 -96t71.5 -262q0 -165 -71.5 -261t-187.5 -96zM837 54q133 0 253.5 52t206.5 139.5
t136.5 208.5t50.5 254t-50.5 253.5t-136.5 208t-206.5 139.5t-253.5 52t-253.5 -52t-206.5 -139.5t-136.5 -208t-50.5 -253.5t50.5 -254t136.5 -208.5t206.5 -139.5t253.5 -52zM837 -46q-153 0 -292.5 60t-240.5 161t-161 241t-60 292q0 153 60 292.5t161 241t240.5 161.5
t292.5 60t292.5 -60t240.5 -161.5t161 -241t60 -292.5q0 -152 -60 -292t-161 -241t-240.5 -161t-292.5 -60z" />
    <glyph glyph-name="uni24FF" unicode="&#x30;&#x20dd;&#x25cf;" 
d="M834 432q-77 0 -121 77.5t-44 212.5q0 136 44 213t121 77t121 -77t44 -213q0 -135 -44 -212.5t-121 -77.5zM834 332q131 0 209 105.5t78 284.5t-78 285t-209 106q-130 0 -208.5 -106t-78.5 -285t78.5 -284.5t208.5 -105.5zM837 -46q-153 0 -292.5 60t-240.5 161
t-161 240.5t-60 292.5t60 292.5t161 240.5t240.5 161t292.5 60t292.5 -60t240.5 -161t161 -240.5t60 -292.5t-60 -292.5t-161 -240.5t-240.5 -161t-292.5 -60z" />
    <glyph glyph-name="uni278A" unicode="&#x31;&#x20dd;&#x25cf;" 
d="M930 351v751h-118l-190 -130v-114l186 127h2v-634h120zM837 -46q-153 0 -292.5 60t-240.5 161t-161 240.5t-60 292.5t60 292.5t161 240.5t240.5 161t292.5 60t292.5 -60t240.5 -161t161 -240.5t60 -292.5t-60 -292.5t-161 -240.5t-240.5 -161t-292.5 -60z" />
    <glyph glyph-name="uni278B" unicode="&#x32;&#x20dd;&#x25cf;" 
d="M694 884v8q1 54 39 90.5t99 36.5q57 0 95 -33t38 -85q0 -43 -21.5 -79.5t-64.5 -82.5l-294 -313v-76h518v100h-354v1l216 230q63 69 92 117.5t29 109.5q0 91 -70.5 149.5t-181.5 58.5q-119 0 -187.5 -66t-69.5 -158v-8h117zM837 -46q-153 0 -292.5 60t-240.5 161
t-161 240.5t-60 292.5t60 292.5t161 240.5t240.5 161t292.5 60t292.5 -60t240.5 -161t161 -240.5t60 -292.5t-60 -292.5t-161 -240.5t-240.5 -161t-292.5 -60z" />
    <glyph glyph-name="uni278C" unicode="&#x33;&#x20dd;&#x25cf;" 
d="M747 691h93q67 0 110 -36t44 -92q0 -58 -44.5 -94.5t-117.5 -36.5q-63 1 -107 32t-51 76h-112q5 -88 78 -146t191 -58q122 0 203.5 62t80.5 162q-2 79 -52 128t-115 56v1q55 12 99 60t43 118q-2 84 -73 139.5t-183 55.5q-113 -1 -181.5 -57.5t-73.5 -144.5h114
q5 45 43 75t96 30q61 0 99.5 -32t38.5 -82q0 -52 -38 -86t-98 -34h-87v-96zM837 -46q-153 0 -292.5 60t-240.5 161t-161 240.5t-60 292.5t60 292.5t161 240.5t240.5 161t292.5 60t292.5 -60t240.5 -161t161 -240.5t60 -292.5t-60 -292.5t-161 -240.5t-240.5 -161t-292.5 -60
z" />
    <glyph glyph-name="uni278D" unicode="&#x34;&#x20dd;&#x25cf;" 
d="M830 1102q-266 -409 -319 -501v-97h375v-153h116v153h104v98h-104v500h-172zM627 602v2q88 150 258 401h1v-403h-259zM837 -46q-153 0 -292.5 60t-240.5 161t-161 240.5t-60 292.5t60 292.5t161 240.5t240.5 161t292.5 60t292.5 -60t240.5 -161t161 -240.5t60 -292.5
t-60 -292.5t-161 -240.5t-240.5 -161t-292.5 -60z" />
    <glyph glyph-name="uni278E" unicode="&#x35;&#x20dd;&#x25cf;" 
d="M569 539q5 -87 79 -144.5t184 -57.5q127 0 206 72.5t79 190.5q0 110 -72.5 177t-179.5 67q-56 0 -99 -20.5t-65 -49.5h-1l19 231h355v98h-455l-34 -434h106q52 80 148 80q68 0 113.5 -42.5t45.5 -110.5q0 -72 -47 -117t-113 -45q-57 0 -102 28.5t-54 76.5h-113zM837 -46
q-153 0 -292.5 60t-240.5 161t-161 240.5t-60 292.5t60 292.5t161 240.5t240.5 161t292.5 60t292.5 -60t240.5 -161t161 -240.5t60 -292.5t-60 -292.5t-161 -240.5t-240.5 -161t-292.5 -60z" />
    <glyph glyph-name="uni278F" unicode="&#x36;&#x20dd;&#x25cf;" 
d="M1113 597q0 110 -72.5 176t-174.5 66q-149 0 -206 -118l-2 -2v3q-1 137 50 216.5t136 79.5q52 0 88 -24.5t47 -57.5h117q-8 71 -76.5 125.5t-172.5 54.5q-142 0 -223 -105.5t-81 -306.5q0 -168 65 -258q38 -54 98 -82t129 -28q123 0 200.5 70.5t77.5 190.5zM676 592
q0 67 45.5 110t115.5 43q67 0 112.5 -41.5t45.5 -112.5q0 -74 -44.5 -116t-113.5 -42q-68 0 -114.5 44t-46.5 115zM837 -46q-153 0 -292.5 60t-240.5 161t-161 240.5t-60 292.5t60 292.5t161 240.5t240.5 161t292.5 60t292.5 -60t240.5 -161t161 -240.5t60 -292.5
t-60 -292.5t-161 -240.5t-240.5 -161t-292.5 -60z" />
    <glyph glyph-name="uni2790" unicode="&#x37;&#x20dd;&#x25cf;" 
d="M589 1095v-99h395v-2l-328 -649h129l321 652v98h-517zM837 -46q-153 0 -292.5 60t-240.5 161t-161 240.5t-60 292.5t60 292.5t161 240.5t240.5 161t292.5 60t292.5 -60t240.5 -161t161 -240.5t60 -292.5t-60 -292.5t-161 -240.5t-240.5 -161t-292.5 -60z" />
    <glyph glyph-name="uni2791" unicode="&#x38;&#x20dd;&#x25cf;" 
d="M835 788q-62 0 -101.5 33t-39.5 86q0 52 39.5 85t101.5 33t101.5 -33t39.5 -85t-39.5 -85.5t-101.5 -33.5zM835 428q-74 0 -122 39t-48 98q0 58 48 96.5t122 38.5q73 0 121 -38t48 -97t-48 -98t-121 -39zM835 336q128 0 208.5 62t80.5 161q0 68 -44 119.5t-117 67.5v1
q61 19 95.5 65t34.5 105q0 89 -72 145t-186 56t-186 -56t-72 -145q0 -59 34.5 -105t95.5 -65v-1q-73 -16 -117 -67.5t-44 -119.5q0 -99 80.5 -161t208.5 -62zM837 -46q-153 0 -292.5 60t-240.5 161t-161 240.5t-60 292.5t60 292.5t161 240.5t240.5 161t292.5 60t292.5 -60
t240.5 -161t161 -240.5t60 -292.5t-60 -292.5t-161 -240.5t-240.5 -161t-292.5 -60z" />
    <glyph glyph-name="uni2792" unicode="&#x39;&#x20dd;&#x25cf;" 
d="M987 860q0 -71 -46 -112.5t-114 -41.5t-113 42.5t-45 114.5q0 71 45 114t113 43q69 0 114.5 -44t45.5 -116zM571 511q10 -71 76 -122.5t170 -51.5q149 0 226 104t77 301q0 102 -22.5 177t-63.5 117t-91.5 61.5t-111.5 19.5q-123 0 -201 -70t-78 -187q0 -112 72.5 -180.5
t178.5 -68.5q146 0 201 116h1q2 -133 -46 -213t-140 -80q-48 0 -84.5 23t-47.5 54h-116zM837 -46q-153 0 -292.5 60t-240.5 161t-161 240.5t-60 292.5t60 292.5t161 240.5t240.5 161t292.5 60t292.5 -60t240.5 -161t161 -240.5t60 -292.5t-60 -292.5t-161 -240.5
t-240.5 -161t-292.5 -60z" />
    <glyph glyph-name="uni1F130" unicode="A&#x20de;" 
d="M725 660h225l-109 311h-8zM631 384h-104l251 689h118l251 -689h-104l-69 199h-273zM348 1439h978q101 0 170 -68t69 -168v-986q0 -100 -69 -167.5t-170 -67.5h-978q-101 0 -170 67.5t-69 167.5v986q0 100 69 168t170 68zM1464 1202q0 62 -41.5 103t-105.5 41h-960
q-63 0 -105 -40.5t-42 -103.5v-983q0 -63 42 -103.5t105 -40.5h960q64 0 105.5 40.5t41.5 103.5v983z" />
    <glyph glyph-name="uni1F131" unicode="B&#x20de;" 
d="M607 381v689h277q94 0 150 -47t56 -123q0 -60 -32.5 -100t-85.5 -53v-4q70 -9 113.5 -53.5t43.5 -116.5q0 -90 -67 -141t-179 -51h-276zM708 991v-219h125q76 0 116 29.5t40 81.5q0 51 -33.5 79.5t-93.5 28.5h-154zM708 698v-238h134q94 0 138 29t44 88q0 57 -38.5 89
t-108.5 32h-169zM348 1439h978q101 0 170 -68t69 -168v-986q0 -100 -69 -167.5t-170 -67.5h-978q-101 0 -170 67.5t-69 167.5v986q0 100 69 168t170 68zM1464 1202q0 62 -41.5 103t-105.5 41h-960q-63 0 -105 -40.5t-42 -103.5v-983q0 -63 42 -103.5t105 -40.5h960
q64 0 105.5 40.5t41.5 103.5v983z" />
    <glyph glyph-name="uni1F132" unicode="C&#x20de;" 
d="M1025 588h104q-14 -101 -93.5 -162.5t-197.5 -61.5q-142 0 -229 99t-87 259t87 259t229 99q120 0 200.5 -64.5t91.5 -168.5h-102q-8 65 -60.5 107t-127.5 42q-96 0 -155.5 -76t-59.5 -198q0 -123 59.5 -198.5t155.5 -75.5q74 0 125 39.5t60 100.5zM348 1439h978
q101 0 170 -68t69 -168v-986q0 -100 -69 -167.5t-170 -67.5h-978q-101 0 -170 67.5t-69 167.5v986q0 100 69 168t170 68zM1464 1202q0 62 -41.5 103t-105.5 41h-960q-63 0 -105 -40.5t-42 -103.5v-983q0 -63 42 -103.5t105 -40.5h960q64 0 105.5 40.5t41.5 103.5v983z" />
    <glyph glyph-name="uni1F133" unicode="D&#x20de;" 
d="M588 1062h238q154 0 235 -88t81 -250q0 -165 -81 -253.5t-235 -88.5h-238v680zM690 980v-515h123q222 0 222 257q0 126 -56.5 192t-165.5 66h-123zM348 1439h978q101 0 170 -68t69 -168v-986q0 -100 -69 -167.5t-170 -67.5h-978q-101 0 -170 67.5t-69 167.5v986
q0 100 69 168t170 68zM1464 1202q0 62 -41.5 103t-105.5 41h-960q-63 0 -105 -40.5t-42 -103.5v-983q0 -63 42 -103.5t105 -40.5h960q64 0 105.5 40.5t41.5 103.5v983z" />
    <glyph glyph-name="uni1F134" unicode="E&#x20de;" 
d="M1064 461v-83h-445v688h445v-82h-343v-216h324v-80h-324v-227h343zM348 1439h978q101 0 170 -68t69 -168v-986q0 -100 -69 -167.5t-170 -67.5h-978q-101 0 -170 67.5t-69 167.5v986q0 100 69 168t170 68zM1464 1202q0 62 -41.5 103t-105.5 41h-960q-63 0 -105 -40.5
t-42 -103.5v-983q0 -63 42 -103.5t105 -40.5h960q64 0 105.5 40.5t41.5 103.5v983z" />
    <glyph glyph-name="uni1F135" unicode="F&#x20de;" 
d="M750 378h-103v688h439v-83h-336v-229h308v-82h-308v-294zM348 1439h978q101 0 170 -68t69 -168v-986q0 -100 -69 -167.5t-170 -67.5h-978q-101 0 -170 67.5t-69 167.5v986q0 100 69 168t170 68zM1464 1202q0 62 -41.5 103t-105.5 41h-960q-63 0 -105 -40.5t-42 -103.5
v-983q0 -63 42 -103.5t105 -40.5h960q64 0 105.5 40.5t41.5 103.5v983z" />
    <glyph glyph-name="uni1F136" unicode="G&#x20de;" 
d="M1027 608v51h-182v77h280v-107q0 -120 -75 -192.5t-210 -72.5q-142 0 -230 99t-88 259t88 259t230 99q117 0 196 -61.5t93 -161.5h-102q-10 61 -61.5 100t-124.5 39q-97 0 -156.5 -75.5t-59.5 -198.5t59.5 -198.5t156.5 -75.5q88 0 137 43t49 117zM348 1439h978
q101 0 170 -68t69 -168v-986q0 -100 -69 -167.5t-170 -67.5h-978q-101 0 -170 67.5t-69 167.5v986q0 100 69 168t170 68zM1464 1202q0 62 -41.5 103t-105.5 41h-960q-63 0 -105 -40.5t-42 -103.5v-983q0 -63 42 -103.5t105 -40.5h960q64 0 105.5 40.5t41.5 103.5v983z" />
    <glyph glyph-name="uni1F137" unicode="H&#x20de;" 
d="M1117 378h-102v313h-355v-313h-103v688h103v-292h355v292h102v-688zM348 1439h978q101 0 170 -68t69 -168v-986q0 -100 -69 -167.5t-170 -67.5h-978q-101 0 -170 67.5t-69 167.5v986q0 100 69 168t170 68zM1464 1202q0 62 -41.5 103t-105.5 41h-960q-63 0 -105 -40.5
t-42 -103.5v-983q0 -63 42 -103.5t105 -40.5h960q64 0 105.5 40.5t41.5 103.5v983z" />
    <glyph glyph-name="uni1F138" unicode="I&#x20de;" 
d="M889 378h-104v688h104v-688zM348 1439h978q101 0 170 -68t69 -168v-986q0 -100 -69 -167.5t-170 -67.5h-978q-101 0 -170 67.5t-69 167.5v986q0 100 69 168t170 68zM1464 1202q0 62 -41.5 103t-105.5 41h-960q-63 0 -105 -40.5t-42 -103.5v-983q0 -63 42 -103.5
t105 -40.5h960q64 0 105.5 40.5t41.5 103.5v983z" />
    <glyph glyph-name="uni1F139" unicode="J&#x20de;" 
d="M587 557h100q1 -46 33.5 -75t83.5 -29q57 0 87.5 34t30.5 94v485h102v-482q0 -103 -59 -161t-161 -58q-99 0 -157.5 54.5t-59.5 137.5zM348 1439h978q101 0 170 -68t69 -168v-986q0 -100 -69 -167.5t-170 -67.5h-978q-101 0 -170 67.5t-69 167.5v986q0 100 69 168t170 68
zM1464 1202q0 62 -41.5 103t-105.5 41h-960q-63 0 -105 -40.5t-42 -103.5v-983q0 -63 42 -103.5t105 -40.5h960q64 0 105.5 40.5t41.5 103.5v983z" />
    <glyph glyph-name="uni1F13A" unicode="K&#x20de;" 
d="M1127 1066l-270 -294l285 -394h-127l-234 326l-87 -91v-235h-102v688h102v-332h5l310 332h118zM348 1439h978q101 0 170 -68t69 -168v-986q0 -100 -69 -167.5t-170 -67.5h-978q-101 0 -170 67.5t-69 167.5v986q0 100 69 168t170 68zM1464 1202q0 62 -41.5 103t-105.5 41
h-960q-63 0 -105 -40.5t-42 -103.5v-983q0 -63 42 -103.5t105 -40.5h960q64 0 105.5 40.5t41.5 103.5v983z" />
    <glyph glyph-name="uni1F13B" unicode="L&#x20de;" 
d="M1100 463v-85h-433v688h103v-603h330zM348 1439h978q101 0 170 -68t69 -168v-986q0 -100 -69 -167.5t-170 -67.5h-978q-101 0 -170 67.5t-69 167.5v986q0 100 69 168t170 68zM1464 1202q0 62 -41.5 103t-105.5 41h-960q-63 0 -105 -40.5t-42 -103.5v-983q0 -63 42 -103.5
t105 -40.5h960q64 0 105.5 40.5t41.5 103.5v983z" />
    <glyph glyph-name="uni1F13C" unicode="M&#x20de;" 
d="M591 378h-92v688h109l228 -564h4l227 564h108v-688h-92v521h-6l-201 -507h-78l-201 507h-6v-521zM348 1439h978q101 0 170 -68t69 -168v-986q0 -100 -69 -167.5t-170 -67.5h-978q-101 0 -170 67.5t-69 167.5v986q0 100 69 168t170 68zM1464 1202q0 62 -41.5 103
t-105.5 41h-960q-63 0 -105 -40.5t-42 -103.5v-983q0 -63 42 -103.5t105 -40.5h960q64 0 105.5 40.5t41.5 103.5v983z" />
    <glyph glyph-name="uni1F13D" unicode="N&#x20de;" 
d="M658 378h-98v688h95l356 -527h5v527h98v-688h-95l-356 529h-5v-529zM348 1439h978q101 0 170 -68t69 -168v-986q0 -100 -69 -167.5t-170 -67.5h-978q-101 0 -170 67.5t-69 167.5v986q0 100 69 168t170 68zM1464 1202q0 62 -41.5 103t-105.5 41h-960q-63 0 -105 -40.5
t-42 -103.5v-983q0 -63 42 -103.5t105 -40.5h960q64 0 105.5 40.5t41.5 103.5v983z" />
    <glyph glyph-name="uni1F13E" unicode="O&#x20de;" 
d="M837 448q96 0 156.5 74t60.5 200t-60.5 200t-156.5 74t-157 -74t-61 -200t61 -200t157 -74zM837 364q-140 0 -230.5 96.5t-90.5 261.5t90.5 261.5t230.5 96.5t230.5 -97t90.5 -261t-90.5 -261t-230.5 -97zM348 1439h978q101 0 170 -68t69 -168v-986q0 -100 -69 -167.5
t-170 -67.5h-978q-101 0 -170 67.5t-69 167.5v986q0 100 69 168t170 68zM1464 1202q0 62 -41.5 103t-105.5 41h-960q-63 0 -105 -40.5t-42 -103.5v-983q0 -63 42 -103.5t105 -40.5h960q64 0 105.5 40.5t41.5 103.5v983z" />
    <glyph glyph-name="uni1F13F" unicode="P&#x20de;" 
d="M893 1066q105 0 168.5 -61.5t63.5 -157.5q0 -97 -63 -158t-169 -61h-165v-250h-102v688h267zM1020 847q0 64 -38 101t-103 37h-151v-276h151q65 0 103 37t38 101zM348 1439h978q101 0 170 -68t69 -168v-986q0 -100 -69 -167.5t-170 -67.5h-978q-101 0 -170 67.5
t-69 167.5v986q0 100 69 168t170 68zM1464 1202q0 62 -41.5 103t-105.5 41h-960q-63 0 -105 -40.5t-42 -103.5v-983q0 -63 42 -103.5t105 -40.5h960q64 0 105.5 40.5t41.5 103.5v983z" />
    <glyph glyph-name="uni1F140" unicode="Q&#x20de;" 
d="M1122 303h-102l-62 84q-55 -23 -121 -23q-140 0 -230.5 96.5t-90.5 261.5t90.5 261.5t230.5 96.5t230.5 -97t90.5 -261q0 -196 -127 -295zM837 448q38 0 68 12l-88 122h101l57 -78q79 74 79 218q0 126 -60.5 200t-156.5 74t-157 -74t-61 -200t61 -200t157 -74zM348 1439
h978q101 0 170 -68t69 -168v-986q0 -100 -69 -167.5t-170 -67.5h-978q-101 0 -170 67.5t-69 167.5v986q0 100 69 168t170 68zM1464 1202q0 62 -41.5 103t-105.5 41h-960q-63 0 -105 -40.5t-42 -103.5v-983q0 -63 42 -103.5t105 -40.5h960q64 0 105.5 40.5t41.5 103.5v983z
" />
    <glyph glyph-name="uni1F141" unicode="R&#x20de;" 
d="M866 1066q109 0 173 -57.5t64 -152.5q0 -72 -40 -123.5t-102 -70.5l153 -284h-115l-140 269h-159v-269h-101v688h267zM700 725h151q68 0 107 34t39 94q0 62 -39 97.5t-104 35.5h-154v-261zM348 1439h978q101 0 170 -68t69 -168v-986q0 -100 -69 -167.5t-170 -67.5h-978
q-101 0 -170 67.5t-69 167.5v986q0 100 69 168t170 68zM1464 1202q0 62 -41.5 103t-105.5 41h-960q-63 0 -105 -40.5t-42 -103.5v-983q0 -63 42 -103.5t105 -40.5h960q64 0 105.5 40.5t41.5 103.5v983z" />
    <glyph glyph-name="uni1F142" unicode="S&#x20de;" 
d="M564 567h101q5 -53 54 -87.5t120 -34.5q72 0 118.5 33.5t46.5 84.5q0 78 -130 110l-115 26q-175 43 -175 182q0 89 71.5 144.5t184.5 55.5q112 0 183 -54t72 -142h-98q-5 50 -49.5 83t-108.5 33t-108 -33t-44 -82q0 -35 30 -61.5t83 -38.5l114 -26q101 -24 146 -68.5
t45 -119.5q0 -95 -74 -151.5t-199 -56.5q-119 0 -192 55.5t-76 147.5zM348 1439h978q101 0 170 -68t69 -168v-986q0 -100 -69 -167.5t-170 -67.5h-978q-101 0 -170 67.5t-69 167.5v986q0 100 69 168t170 68zM1464 1202q0 62 -41.5 103t-105.5 41h-960q-63 0 -105 -40.5
t-42 -103.5v-983q0 -63 42 -103.5t105 -40.5h960q64 0 105.5 40.5t41.5 103.5v983z" />
    <glyph glyph-name="uni1F143" unicode="T&#x20de;" 
d="M889 372h-104v604h-219v84h542v-84h-219v-604zM348 1439h978q101 0 170 -68t69 -168v-986q0 -100 -69 -167.5t-170 -67.5h-978q-101 0 -170 67.5t-69 167.5v986q0 100 69 168t170 68zM1464 1202q0 62 -41.5 103t-105.5 41h-960q-63 0 -105 -40.5t-42 -103.5v-983
q0 -63 42 -103.5t105 -40.5h960q64 0 105.5 40.5t41.5 103.5v983z" />
    <glyph glyph-name="uni1F144" unicode="U&#x20de;" 
d="M837 442q79 0 128 46t49 125v445h102v-453q0 -112 -77 -180.5t-202 -68.5t-202 68.5t-77 180.5v453h102v-445q0 -79 49 -125t128 -46zM348 1439h978q101 0 170 -68t69 -168v-986q0 -100 -69 -167.5t-170 -67.5h-978q-101 0 -170 67.5t-69 167.5v986q0 100 69 168t170 68z
M1464 1202q0 62 -41.5 103t-105.5 41h-960q-63 0 -105 -40.5t-42 -103.5v-983q0 -63 42 -103.5t105 -40.5h960q64 0 105.5 40.5t41.5 103.5v983z" />
    <glyph glyph-name="uni1F145" unicode="V&#x20de;" 
d="M774 369l-253 689h118l195 -580h6l195 580h118l-253 -689h-126zM348 1439h978q101 0 170 -68t69 -168v-986q0 -100 -69 -167.5t-170 -67.5h-978q-101 0 -170 67.5t-69 167.5v986q0 100 69 168t170 68zM1464 1202q0 62 -41.5 103t-105.5 41h-960q-63 0 -105 -40.5
t-42 -103.5v-983q0 -63 42 -103.5t105 -40.5h960q64 0 105.5 40.5t41.5 103.5v983z" />
    <glyph glyph-name="uni1F146" unicode="W&#x20de;" 
d="M837 908l-148 -539h-100l-188 689h112l129 -554h6l145 554h93l145 -554h5l129 554h112l-187 -689h-101l-148 539h-4zM348 1439h978q101 0 170 -68t69 -168v-986q0 -100 -69 -167.5t-170 -67.5h-978q-101 0 -170 67.5t-69 167.5v986q0 100 69 168t170 68zM1464 1202
q0 62 -41.5 103t-105.5 41h-960q-63 0 -105 -40.5t-42 -103.5v-983q0 -63 42 -103.5t105 -40.5h960q64 0 105.5 40.5t41.5 103.5v983z" />
    <glyph glyph-name="uni1F147" unicode="X&#x20de;" 
d="M1124 1070l-232 -345l228 -343h-119l-173 268h-5l-174 -268h-114l228 345l-226 343h122l171 -271h6l171 271h117zM348 1439h978q101 0 170 -68t69 -168v-986q0 -100 -69 -167.5t-170 -67.5h-978q-101 0 -170 67.5t-69 167.5v986q0 100 69 168t170 68zM1464 1202
q0 62 -41.5 103t-105.5 41h-960q-63 0 -105 -40.5t-42 -103.5v-983q0 -63 42 -103.5t105 -40.5h960q64 0 105.5 40.5t41.5 103.5v983z" />
    <glyph glyph-name="uni1F148" unicode="Y&#x20de;" 
d="M889 382h-103v281l-252 407h116l186 -308h4l186 308h113l-250 -405v-283zM348 1439h978q101 0 170 -68t69 -168v-986q0 -100 -69 -167.5t-170 -67.5h-978q-101 0 -170 67.5t-69 167.5v986q0 100 69 168t170 68zM1464 1202q0 62 -41.5 103t-105.5 41h-960
q-63 0 -105 -40.5t-42 -103.5v-983q0 -63 42 -103.5t105 -40.5h960q64 0 105.5 40.5t41.5 103.5v983z" />
    <glyph glyph-name="uni1F149" unicode="Z&#x20de;" 
d="M574 382v70l387 529v6h-375v83h499v-70l-385 -529v-6h394v-83h-520zM348 1439h978q101 0 170 -68t69 -168v-986q0 -100 -69 -167.5t-170 -67.5h-978q-101 0 -170 67.5t-69 167.5v986q0 100 69 168t170 68zM1464 1202q0 62 -41.5 103t-105.5 41h-960q-63 0 -105 -40.5
t-42 -103.5v-983q0 -63 42 -103.5t105 -40.5h960q64 0 105.5 40.5t41.5 103.5v983z" />
    <glyph glyph-name="uni1F150" unicode="A&#x20dd;&#x25cf;" 
d="M952 675h-230l113 323h4zM619 368l74 213h288l73 -213h126l-273 752h-140l-273 -752h125zM837 -46q-153 0 -292.5 60t-240.5 161t-161 240.5t-60 292.5t60 292.5t161 240.5t240.5 161t292.5 60t292.5 -60t240.5 -161t161 -240.5t60 -292.5t-60 -292.5t-161 -240.5
t-240.5 -161t-292.5 -60z" />
    <glyph glyph-name="uni1F151" unicode="B&#x20dd;&#x25cf;" 
d="M579 351h303q125 0 198 57t73 155q0 75 -45 125t-121 61v1q57 15 90 59.5t33 106.5q0 84 -61.5 135.5t-165.5 51.5h-304v-752zM699 1008h160q62 0 96.5 -29.5t34.5 -81.5q0 -55 -41.5 -85t-120.5 -30h-129v226zM699 693h177q72 0 112.5 -33.5t40.5 -93.5
q0 -121 -192 -121h-138v248zM837 -46q-153 0 -292.5 60t-240.5 161t-161 240.5t-60 292.5t60 292.5t161 240.5t240.5 161t292.5 60t292.5 -60t240.5 -161t161 -240.5t60 -292.5t-60 -292.5t-161 -240.5t-240.5 -161t-292.5 -60z" />
    <glyph glyph-name="uni1F152" unicode="C&#x20dd;&#x25cf;" 
d="M1035 576q-12 -59 -65.5 -98t-128.5 -39q-100 0 -162.5 78t-62.5 205q0 126 63 204.5t162 78.5q75 0 130.5 -42.5t66.5 -104.5h122q-14 113 -102 183.5t-219 70.5q-155 0 -251.5 -108t-96.5 -282q0 -175 96.5 -282.5t251.5 -107.5q129 0 215.5 67t103.5 177h-123z
M837 -46q-153 0 -292.5 60t-240.5 161t-161 240.5t-60 292.5t60 292.5t161 240.5t240.5 161t292.5 60t292.5 -60t240.5 -161t161 -240.5t60 -292.5t-60 -292.5t-161 -240.5t-240.5 -161t-292.5 -60z" />
    <glyph glyph-name="uni1F153" unicode="D&#x20dd;&#x25cf;" 
d="M573 1096v-744h263q167 0 256.5 96t89.5 277q0 179 -89.5 275t-256.5 96h-263zM694 995h128q115 0 175.5 -68.5t60.5 -202.5q0 -272 -236 -272h-128v543zM837 -46q-153 0 -292.5 60t-240.5 161t-161 240.5t-60 292.5t60 292.5t161 240.5t240.5 161t292.5 60t292.5 -60
t240.5 -161t161 -240.5t60 -292.5t-60 -292.5t-161 -240.5t-240.5 -161t-292.5 -60z" />
    <glyph glyph-name="uni1F154" unicode="E&#x20dd;&#x25cf;" 
d="M1084 448h-369v233h348v96h-348v223h369v100h-490v-752h490v100zM837 -46q-153 0 -292.5 60t-240.5 161t-161 240.5t-60 292.5t60 292.5t161 240.5t240.5 161t292.5 60t292.5 -60t240.5 -161t161 -240.5t60 -292.5t-60 -292.5t-161 -240.5t-240.5 -161t-292.5 -60z" />
    <glyph glyph-name="uni1F155" unicode="F&#x20dd;&#x25cf;" 
d="M744 348v316h331v100h-331v235h361v101h-482v-752h121zM837 -46q-153 0 -292.5 60t-240.5 161t-161 240.5t-60 292.5t60 292.5t161 240.5t240.5 161t292.5 60t292.5 -60t240.5 -161t161 -240.5t60 -292.5t-60 -292.5t-161 -240.5t-240.5 -161t-292.5 -60z" />
    <glyph glyph-name="uni1F156" unicode="G&#x20dd;&#x25cf;" 
d="M1037 618q0 -77 -51 -125.5t-144 -48.5q-101 0 -163.5 75.5t-62.5 202.5t62.5 202.5t163.5 75.5q79 0 132 -36t62 -88h123q-14 103 -102 169t-216 66q-156 0 -253 -107.5t-97 -281.5t96.5 -282t252.5 -108q144 0 230 84.5t86 214.5v119h-304v-102h185v-30zM837 -46
q-153 0 -292.5 60t-240.5 161t-161 240.5t-60 292.5t60 292.5t161 240.5t240.5 161t292.5 60t292.5 -60t240.5 -161t161 -240.5t60 -292.5t-60 -292.5t-161 -240.5t-240.5 -161t-292.5 -60z" />
    <glyph glyph-name="uni1F157" unicode="H&#x20dd;&#x25cf;" 
d="M1145 348v752h-120v-315h-375v315h-121v-752h121v337h375v-337h120zM837 -46q-153 0 -292.5 60t-240.5 161t-161 240.5t-60 292.5t60 292.5t161 240.5t240.5 161t292.5 60t292.5 -60t240.5 -161t161 -240.5t60 -292.5t-60 -292.5t-161 -240.5t-240.5 -161t-292.5 -60z
" />
    <glyph glyph-name="uni1F158" unicode="I&#x20dd;&#x25cf;" 
d="M897 348v752h-120v-752h120zM837 -46q-153 0 -292.5 60t-240.5 161t-161 240.5t-60 292.5t60 292.5t161 240.5t240.5 161t292.5 60t292.5 -60t240.5 -161t161 -240.5t60 -292.5t-60 -292.5t-161 -240.5t-240.5 -161t-292.5 -60z" />
    <glyph glyph-name="uni1F159" unicode="J&#x20dd;&#x25cf;" 
d="M563 550q1 -97 66.5 -156.5t172.5 -59.5q114 0 178 63.5t64 177.5v525h-121v-528q0 -64 -31.5 -98t-91.5 -34q-51 0 -84 31t-35 79h-118zM837 -46q-153 0 -292.5 60t-240.5 161t-161 240.5t-60 292.5t60 292.5t161 240.5t240.5 161t292.5 60t292.5 -60t240.5 -161
t161 -240.5t60 -292.5t-60 -292.5t-161 -240.5t-240.5 -161t-292.5 -60z" />
    <glyph glyph-name="uni1F15A" unicode="K&#x20dd;&#x25cf;" 
d="M1154 1100h-139l-330 -356h-1v356h-121v-752h121v257l87 92l250 -349h148l-311 428zM837 -46q-153 0 -292.5 60t-240.5 161t-161 240.5t-60 292.5t60 292.5t161 240.5t240.5 161t292.5 60t292.5 -60t240.5 -161t161 -240.5t60 -292.5t-60 -292.5t-161 -240.5t-240.5 -161
t-292.5 -60z" />
    <glyph glyph-name="uni1F15B" unicode="L&#x20dd;&#x25cf;" 
d="M1112 451h-355v649h-121v-752h476v103zM837 -46q-153 0 -292.5 60t-240.5 161t-161 240.5t-60 292.5t60 292.5t161 240.5t240.5 161t292.5 60t292.5 -60t240.5 -161t161 -240.5t60 -292.5t-60 -292.5t-161 -240.5t-240.5 -161t-292.5 -60z" />
    <glyph glyph-name="uni1F15C" unicode="M&#x20dd;&#x25cf;" 
d="M577 348v563h1l213 -545h92l212 542h2v-560h110v752h-129l-241 -609h-1l-240 609h-129v-752h110zM837 -46q-153 0 -292.5 60t-240.5 161t-161 240.5t-60 292.5t60 292.5t161 240.5t240.5 161t292.5 60t292.5 -60t240.5 -161t161 -240.5t60 -292.5t-60 -292.5t-161 -240.5
t-240.5 -161t-292.5 -60z" />
    <glyph glyph-name="uni1F15D" unicode="N&#x20dd;&#x25cf;" 
d="M650 348v564h1l377 -564h113v752h-117v-565h-1l-379 565h-111v-752h117zM837 -46q-153 0 -292.5 60t-240.5 161t-161 240.5t-60 292.5t60 292.5t161 240.5t240.5 161t292.5 60t292.5 -60t240.5 -161t161 -240.5t60 -292.5t-60 -292.5t-161 -240.5t-240.5 -161t-292.5 -60
z" />
    <glyph glyph-name="uni1F15E" unicode="O&#x20dd;&#x25cf;" 
d="M837 435q-100 0 -164 77.5t-64 209.5t64 209.5t164 77.5t164 -77.5t64 -209.5t-64 -209.5t-164 -77.5zM837 332q153 0 251.5 105.5t98.5 284.5t-98.5 284.5t-251.5 105.5t-251.5 -105.5t-98.5 -284.5t98.5 -284.5t251.5 -105.5zM837 -46q-153 0 -292.5 60t-240.5 161
t-161 240.5t-60 292.5t60 292.5t161 240.5t240.5 161t292.5 60t292.5 -60t240.5 -161t161 -240.5t60 -292.5t-60 -292.5t-161 -240.5t-240.5 -161t-292.5 -60z" />
    <glyph glyph-name="uni1F15F" unicode="P&#x20dd;&#x25cf;" 
d="M892 1100h-293v-752h121v271h172q114 0 185 66t71 173t-71 174.5t-185 67.5zM1024 858q0 -66 -39.5 -104.5t-107.5 -38.5h-157v286h157q68 0 107.5 -38.5t39.5 -104.5zM837 -46q-153 0 -292.5 60t-240.5 161t-161 240.5t-60 292.5t60 292.5t161 240.5t240.5 161t292.5 60
t292.5 -60t240.5 -161t161 -240.5t60 -292.5t-60 -292.5t-161 -240.5t-240.5 -161t-292.5 -60z" />
    <glyph glyph-name="uni1F160" unicode="Q&#x20dd;&#x25cf;" 
d="M1156 268l-101 138q132 108 132 316q0 179 -98.5 284.5t-251.5 105.5t-251.5 -105.5t-98.5 -284.5t98.5 -284.5t251.5 -105.5q68 0 129 23l63 -87h127zM837 435q-100 0 -164 77.5t-64 209.5t64 209.5t164 77.5t164 -77.5t64 -209.5q0 -144 -79 -223l-57 79h-124l96 -133
q-29 -10 -64 -10zM837 -46q-153 0 -292.5 60t-240.5 161t-161 240.5t-60 292.5t60 292.5t161 240.5t240.5 161t292.5 60t292.5 -60t240.5 -161t161 -240.5t60 -292.5t-60 -292.5t-161 -240.5t-240.5 -161t-292.5 -60z" />
    <glyph glyph-name="uni1F161" unicode="R&#x20dd;&#x25cf;" 
d="M691 733v269h160q68 0 108.5 -37t40.5 -100q0 -61 -40.5 -96.5t-110.5 -35.5h-158zM864 1100h-292v-752h119v291h161l150 -291h137l-166 308q69 21 110 78.5t41 133.5q0 106 -70.5 169t-189.5 63zM837 -46q-153 0 -292.5 60t-240.5 161t-161 240.5t-60 292.5t60 292.5
t161 240.5t240.5 161t292.5 60t292.5 -60t240.5 -161t161 -240.5t60 -292.5t-60 -292.5t-161 -240.5t-240.5 -161t-292.5 -60z" />
    <glyph glyph-name="uni1F162" unicode="S&#x20dd;&#x25cf;" 
d="M537 559q3 -102 84.5 -164t210.5 -62q136 0 217.5 61.5t81.5 166.5q0 82 -51 132t-160 76l-122 28q-56 13 -86.5 40.5t-30.5 63.5q0 53 43.5 85.5t114.5 32.5q69 0 115.5 -34t50.5 -89h115q-2 95 -79.5 157.5t-200.5 62.5q-124 0 -202 -62t-78 -160q0 -76 49 -127
t143 -73l123 -30q72 -16 104 -43t32 -69q0 -55 -47.5 -88.5t-124.5 -33.5q-76 0 -127.5 36.5t-55.5 92.5h-119zM837 -46q-153 0 -292.5 60t-240.5 161t-161 240.5t-60 292.5t60 292.5t161 240.5t240.5 161t292.5 60t292.5 -60t240.5 -161t161 -240.5t60 -292.5t-60 -292.5
t-161 -240.5t-240.5 -161t-292.5 -60z" />
    <glyph glyph-name="uni1F163" unicode="T&#x20dd;&#x25cf;" 
d="M898 328v650h234v102h-590v-102h235v-650h121zM837 -46q-153 0 -292.5 60t-240.5 161t-161 240.5t-60 292.5t60 292.5t161 240.5t240.5 161t292.5 60t292.5 -60t240.5 -161t161 -240.5t60 -292.5t-60 -292.5t-161 -240.5t-240.5 -161t-292.5 -60z" />
    <glyph glyph-name="uni1F164" unicode="U&#x20dd;&#x25cf;" 
d="M837 415q-85 0 -135 47.5t-50 130.5v485h-121v-493q0 -124 84 -198.5t222 -74.5q137 0 221.5 75t84.5 198v493h-121v-485q0 -83 -50 -130.5t-135 -47.5zM837 -46q-153 0 -292.5 60t-240.5 161t-161 240.5t-60 292.5t60 292.5t161 240.5t240.5 161t292.5 60t292.5 -60
t240.5 -161t161 -240.5t60 -292.5t-60 -292.5t-161 -240.5t-240.5 -161t-292.5 -60z" />
    <glyph glyph-name="uni1F165" unicode="V&#x20dd;&#x25cf;" 
d="M907 326l276 751h-138l-206 -627h-4l-206 627h-138l275 -751h141zM837 -46q-153 0 -292.5 60t-240.5 161t-161 240.5t-60 292.5t60 292.5t161 240.5t240.5 161t292.5 60t292.5 -60t240.5 -161t161 -240.5t60 -292.5t-60 -292.5t-161 -240.5t-240.5 -161t-292.5 -60z" />
    <glyph glyph-name="uni1F166" unicode="W&#x20dd;&#x25cf;" 
d="M837 901h4l157 -575h119l204 751h-133l-133 -596h-4l-156 596h-112l-155 -596h-4l-134 596h-133l205 -751h118zM837 -46q-153 0 -292.5 60t-240.5 161t-161 240.5t-60 292.5t60 292.5t161 240.5t240.5 161t292.5 60t292.5 -60t240.5 -161t161 -240.5t60 -292.5
t-60 -292.5t-161 -240.5t-240.5 -161t-292.5 -60z" />
    <glyph glyph-name="uni1F167" unicode="X&#x20dd;&#x25cf;" 
d="M1158 1104h-139l-182 -294h-4l-185 294h-144l246 -375l-249 -377h136l187 290h3l186 -290h141l-249 374zM837 -46q-153 0 -292.5 60t-240.5 161t-161 240.5t-60 292.5t60 292.5t161 240.5t240.5 161t292.5 60t292.5 -60t240.5 -161t161 -240.5t60 -292.5t-60 -292.5
t-161 -240.5t-240.5 -161t-292.5 -60z" />
    <glyph glyph-name="uni1F168" unicode="Y&#x20dd;&#x25cf;" 
d="M777 349h120v306l275 445h-137l-196 -333h-4l-197 333h-136l275 -445v-306zM837 -46q-153 0 -292.5 60t-240.5 161t-161 240.5t-60 292.5t60 292.5t161 240.5t240.5 161t292.5 60t292.5 -60t240.5 -161t161 -240.5t60 -292.5t-60 -292.5t-161 -240.5t-240.5 -161
t-292.5 -60z" />
    <glyph glyph-name="uni1F169" unicode="Z&#x20dd;&#x25cf;" 
d="M549 352h570v101h-425v1l416 566v84h-548v-101h404v-2l-417 -565v-84zM837 -46q-153 0 -292.5 60t-240.5 161t-161 240.5t-60 292.5t60 292.5t161 240.5t240.5 161t292.5 60t292.5 -60t240.5 -161t161 -240.5t60 -292.5t-60 -292.5t-161 -240.5t-240.5 -161t-292.5 -60z
" />
    <glyph glyph-name="uni1F170" unicode="A&#x20de;&#x25a0;" 
d="M952 661h-230l113 324h4zM619 354l74 213h288l73 -213h126l-273 752h-140l-273 -752h125zM348 1439h978q101 0 170 -68t69 -168v-986q0 -100 -69 -167.5t-170 -67.5h-978q-101 0 -170 67.5t-69 167.5v986q0 100 69 168t170 68z" />
    <glyph glyph-name="uni1F171" unicode="B&#x20de;&#x25a0;" 
d="M579 351h303q123 0 197 56.5t74 155.5q0 78 -46 126t-120 60v1q55 15 89 58.5t34 107.5q0 84 -62 135.5t-165 51.5h-304v-752zM699 1008h160q62 0 96.5 -30t34.5 -81q0 -54 -41 -84.5t-121 -30.5h-129v226zM699 693h177q72 0 112.5 -33.5t40.5 -93.5q0 -121 -192 -121
h-138v248zM348 1439h978q101 0 170 -68t69 -168v-986q0 -100 -69 -167.5t-170 -67.5h-978q-101 0 -170 67.5t-69 167.5v986q0 100 69 168t170 68z" />
    <glyph glyph-name="uni1F172" unicode="C&#x20de;&#x25a0;" 
d="M1035 576q-12 -59 -65.5 -98t-128.5 -39q-100 0 -162.5 78t-62.5 205q0 126 63 204.5t162 78.5q75 0 130.5 -42.5t66.5 -104.5h122q-14 113 -102 183.5t-219 70.5q-155 0 -251.5 -108t-96.5 -282q0 -175 96.5 -282.5t251.5 -107.5q129 0 215.5 67t103.5 177h-123z
M348 1439h978q101 0 170 -68t69 -168v-986q0 -100 -69 -167.5t-170 -67.5h-978q-101 0 -170 67.5t-69 167.5v986q0 100 69 168t170 68z" />
    <glyph glyph-name="uni1F173" unicode="D&#x20de;&#x25a0;" 
d="M558 1096v-744h263q168 0 256.5 97t88.5 276q0 177 -88.5 274t-256.5 97h-263zM678 995h128q116 0 176 -69t60 -202q0 -272 -236 -272h-128v543zM348 1439h978q101 0 170 -68t69 -168v-986q0 -100 -69 -167.5t-170 -67.5h-978q-101 0 -170 67.5t-69 167.5v986
q0 100 69 168t170 68z" />
    <glyph glyph-name="uni1F174" unicode="E&#x20de;&#x25a0;" 
d="M1084 448h-369v233h348v96h-348v223h369v100h-490v-752h490v100zM348 1439h978q101 0 170 -68t69 -168v-986q0 -100 -69 -167.5t-170 -67.5h-978q-101 0 -170 67.5t-69 167.5v986q0 100 69 168t170 68z" />
    <glyph glyph-name="uni1F175" unicode="F&#x20de;&#x25a0;" 
d="M744 348v316h331v100h-331v235h361v101h-482v-752h121zM348 1439h978q101 0 170 -68t69 -168v-986q0 -100 -69 -167.5t-170 -67.5h-978q-101 0 -170 67.5t-69 167.5v986q0 100 69 168t170 68z" />
    <glyph glyph-name="uni1F176" unicode="G&#x20de;&#x25a0;" 
d="M1037 618q0 -77 -51 -125.5t-144 -48.5q-101 0 -163.5 75.5t-62.5 202.5t62.5 202.5t163.5 75.5q79 0 132 -36t62 -88h123q-14 103 -102 169t-216 66q-156 0 -253 -107.5t-97 -281.5t96.5 -282t252.5 -108q144 0 230 84.5t86 214.5v119h-304v-102h185v-30zM348 1439h978
q101 0 170 -68t69 -168v-986q0 -100 -69 -167.5t-170 -67.5h-978q-101 0 -170 67.5t-69 167.5v986q0 100 69 168t170 68z" />
    <glyph glyph-name="uni1F177" unicode="H&#x20de;&#x25a0;" 
d="M1145 348v752h-120v-315h-375v315h-121v-752h121v337h375v-337h120zM348 1439h978q101 0 170 -68t69 -168v-986q0 -100 -69 -167.5t-170 -67.5h-978q-101 0 -170 67.5t-69 167.5v986q0 100 69 168t170 68z" />
    <glyph glyph-name="uni1F178" unicode="I&#x20de;&#x25a0;" 
d="M897 348v752h-120v-752h120zM348 1439h978q101 0 170 -68t69 -168v-986q0 -100 -69 -167.5t-170 -67.5h-978q-101 0 -170 67.5t-69 167.5v986q0 100 69 168t170 68z" />
    <glyph glyph-name="uni1F179" unicode="J&#x20de;&#x25a0;" 
d="M563 550q1 -94 65 -155t174 -61q113 0 177.5 63.5t64.5 177.5v525h-121v-528q0 -64 -31.5 -98t-91.5 -34q-51 0 -84 31t-35 79h-118zM348 1439h978q101 0 170 -68t69 -168v-986q0 -100 -69 -167.5t-170 -67.5h-978q-101 0 -170 67.5t-69 167.5v986q0 100 69 168t170 68z
" />
    <glyph glyph-name="uni1F17A" unicode="K&#x20de;&#x25a0;" 
d="M1154 1100h-139l-330 -356h-1v356h-121v-752h121v257l87 92l250 -349h148q-36 52 -157.5 217t-153.5 211zM348 1439h978q101 0 170 -68t69 -168v-986q0 -100 -69 -167.5t-170 -67.5h-978q-101 0 -170 67.5t-69 167.5v986q0 100 69 168t170 68z" />
    <glyph glyph-name="uni1F17B" unicode="L&#x20de;&#x25a0;" 
d="M1119 451h-355v649h-121v-752h476v103zM348 1439h978q101 0 170 -68t69 -168v-986q0 -100 -69 -167.5t-170 -67.5h-978q-101 0 -170 67.5t-69 167.5v986q0 100 69 168t170 68z" />
    <glyph glyph-name="uni1F17C" unicode="M&#x20de;&#x25a0;" 
d="M577 348v563h1l213 -545h92l212 542h2v-560h110v752h-129l-241 -609h-1l-240 609h-129v-752h110zM348 1439h978q101 0 170 -68t69 -168v-986q0 -100 -69 -167.5t-170 -67.5h-978q-101 0 -170 67.5t-69 167.5v986q0 100 69 168t170 68z" />
    <glyph glyph-name="uni1F17D" unicode="N&#x20de;&#x25a0;" 
d="M650 348v564h1l377 -564h113v752h-117v-565h-1l-379 565h-111v-752h117zM348 1439h978q101 0 170 -68t69 -168v-986q0 -100 -69 -167.5t-170 -67.5h-978q-101 0 -170 67.5t-69 167.5v986q0 100 69 168t170 68z" />
    <glyph glyph-name="uni1F17E" unicode="O&#x20de;&#x25a0;" 
d="M837 435q-100 0 -164 77.5t-64 209.5t64 209.5t164 77.5t164 -77.5t64 -209.5t-64 -209.5t-164 -77.5zM837 332q153 0 251.5 105.5t98.5 284.5t-98.5 284.5t-251.5 105.5t-251.5 -105.5t-98.5 -284.5t98.5 -284.5t251.5 -105.5zM348 1439h978q101 0 170 -68t69 -168v-986
q0 -100 -69 -167.5t-170 -67.5h-978q-101 0 -170 67.5t-69 167.5v986q0 100 69 168t170 68z" />
    <glyph glyph-name="uni1F17F" unicode="P&#x20de;&#x25a0;" 
d="M892 1100h-293v-752h121v271h172q116 0 186 67t70 172t-70 173.5t-186 68.5zM1024 858q0 -66 -39.5 -104.5t-107.5 -38.5h-157v286h157q68 0 107.5 -38.5t39.5 -104.5zM348 1439h978q101 0 170 -68t69 -168v-986q0 -100 -69 -167.5t-170 -67.5h-978q-101 0 -170 67.5
t-69 167.5v986q0 100 69 168t170 68z" />
    <glyph glyph-name="uni1F180" unicode="Q&#x20de;&#x25a0;" 
d="M1156 268l-101 138q132 108 132 316q0 179 -98.5 284.5t-251.5 105.5t-251.5 -105.5t-98.5 -284.5t98.5 -284.5t251.5 -105.5q68 0 129 23l63 -87h127zM837 435q-100 0 -164 77.5t-64 209.5t64 209.5t164 77.5t164 -77.5t64 -209.5q0 -144 -79 -223l-57 79h-124l96 -133
q-29 -10 -64 -10zM348 1439h978q101 0 170 -68t69 -168v-986q0 -100 -69 -167.5t-170 -67.5h-978q-101 0 -170 67.5t-69 167.5v986q0 100 69 168t170 68z" />
    <glyph glyph-name="uni1F181" unicode="R&#x20de;&#x25a0;" 
d="M691 733v269h160q68 0 108.5 -36.5t40.5 -100.5q0 -62 -40.5 -97t-110.5 -35h-158zM864 1100h-292v-752h119v291h161l150 -291h137l-166 308q67 20 109 76.5t42 135.5q0 106 -70 169t-190 63zM348 1439h978q101 0 170 -68t69 -168v-986q0 -100 -69 -167.5t-170 -67.5
h-978q-101 0 -170 67.5t-69 167.5v986q0 100 69 168t170 68z" />
    <glyph glyph-name="uni1F182" unicode="S&#x20de;&#x25a0;" 
d="M537 559q3 -102 84.5 -164t210.5 -62q136 0 217.5 61.5t81.5 166.5q0 82 -51 132t-160 76l-122 28q-56 13 -86.5 40.5t-30.5 63.5q0 53 43.5 85.5t114.5 32.5q69 0 115.5 -34t50.5 -89h115q-2 95 -79.5 157.5t-200.5 62.5q-124 0 -202 -62t-78 -160q0 -76 49 -127
t143 -73l123 -30q72 -16 104 -43t32 -69q0 -55 -47.5 -88.5t-124.5 -33.5q-76 0 -127.5 36.5t-55.5 92.5h-119zM348 1439h978q101 0 170 -68t69 -168v-986q0 -100 -69 -167.5t-170 -67.5h-978q-101 0 -170 67.5t-69 167.5v986q0 100 69 168t170 68z" />
    <glyph glyph-name="uni1F183" unicode="T&#x20de;&#x25a0;" 
d="M898 342v650h234v101h-590v-101h235v-650h121zM348 1439h978q101 0 170 -68t69 -168v-986q0 -100 -69 -167.5t-170 -67.5h-978q-101 0 -170 67.5t-69 167.5v986q0 100 69 168t170 68z" />
    <glyph glyph-name="uni1F184" unicode="U&#x20de;&#x25a0;" 
d="M837 429q-85 0 -135 47.5t-50 130.5v485h-121v-493q0 -124 84 -199t222 -75q137 0 221.5 75.5t84.5 198.5v493h-121v-485q0 -83 -50 -130.5t-135 -47.5zM348 1439h978q101 0 170 -68t69 -168v-986q0 -100 -69 -167.5t-170 -67.5h-978q-101 0 -170 67.5t-69 167.5v986
q0 100 69 168t170 68z" />
    <glyph glyph-name="uni1F185" unicode="V&#x20de;&#x25a0;" 
d="M907 340l276 751h-138l-206 -627h-4l-206 627h-138l275 -751h141zM348 1439h978q101 0 170 -68t69 -168v-986q0 -100 -69 -167.5t-170 -67.5h-978q-101 0 -170 67.5t-69 167.5v986q0 100 69 168t170 68z" />
    <glyph glyph-name="uni1F186" unicode="W&#x20de;&#x25a0;" 
d="M837 915h4l157 -575h119l204 751h-133l-133 -596h-4l-156 596h-112l-155 -596h-4l-134 596h-133l205 -751h118zM348 1439h978q101 0 170 -68t69 -168v-986q0 -100 -69 -167.5t-170 -67.5h-978q-101 0 -170 67.5t-69 167.5v986q0 100 69 168t170 68z" />
    <glyph glyph-name="uni1F187" unicode="X&#x20de;&#x25a0;" 
d="M1158 1104h-139l-182 -294h-4l-185 294h-144l246 -375l-249 -377h136l187 290h3l186 -290h141l-249 374zM348 1439h978q101 0 170 -68t69 -168v-986q0 -100 -69 -167.5t-170 -67.5h-978q-101 0 -170 67.5t-69 167.5v986q0 100 69 168t170 68z" />
    <glyph glyph-name="uni1F188" unicode="Y&#x20de;&#x25a0;" 
d="M777 352h120v306l275 446h-137l-196 -333h-4l-197 333h-136l275 -446v-306zM348 1439h978q101 0 170 -68t69 -168v-986q0 -100 -69 -167.5t-170 -67.5h-978q-101 0 -170 67.5t-69 167.5v986q0 100 69 168t170 68z" />
    <glyph glyph-name="uni1F189" unicode="Z&#x20de;&#x25a0;" 
d="M549 352h570v101h-425v1l416 566v84h-548v-101h404v-2l-417 -565v-84zM348 1439h978q101 0 170 -68t69 -168v-986q0 -100 -69 -167.5t-170 -67.5h-978q-101 0 -170 67.5t-69 167.5v986q0 100 69 168t170 68z" />
    <glyph glyph-name="plus.uc.whitecircle" unicode="&#x2b;&#x20dd;" 
d="M880 680v-223h-87v223h-216v83h216v214h87v-214h216v-83h-216zM837 54q133 0 253.5 52t206.5 139.5t136.5 208.5t50.5 254t-50.5 253.5t-136.5 208t-206.5 139.5t-253.5 52t-253.5 -52t-206.5 -139.5t-136.5 -208t-50.5 -253.5t50.5 -254t136.5 -208.5t206.5 -139.5
t253.5 -52zM837 -46q-153 0 -292.5 60t-240.5 161t-161 241t-60 292q0 153 60 292.5t161 241t240.5 161.5t292.5 60t292.5 -60t240.5 -161.5t161 -241t60 -292.5q0 -152 -60 -292t-161 -241t-240.5 -161t-292.5 -60z" />
    <glyph glyph-name="minus.uc.whitecircle" unicode="&#x2212;&#x20dd;" 
d="M1084 677h-494v84h494v-84zM837 54q133 0 253.5 52t206.5 139.5t136.5 208.5t50.5 254t-50.5 253.5t-136.5 208t-206.5 139.5t-253.5 52t-253.5 -52t-206.5 -139.5t-136.5 -208t-50.5 -253.5t50.5 -254t136.5 -208.5t206.5 -139.5t253.5 -52zM837 -46q-153 0 -292.5 60
t-240.5 161t-161 241t-60 292q0 153 60 292.5t161 241t240.5 161.5t292.5 60t292.5 -60t240.5 -161.5t161 -241t60 -292.5q0 -152 -60 -292t-161 -241t-240.5 -161t-292.5 -60z" />
    <glyph glyph-name="multiply.uc.whitecircle" unicode="&#xd7;&#x20dd;" 
d="M838 777l162 157l62 -59l-162 -157l162 -157l-62 -59l-162 157l-164 -160l-62 59l165 160l-162 157l61 59zM837 54q133 0 253.5 52t206.5 139.5t136.5 208.5t50.5 254t-50.5 253.5t-136.5 208t-206.5 139.5t-253.5 52t-253.5 -52t-206.5 -139.5t-136.5 -208t-50.5 -253.5
t50.5 -254t136.5 -208.5t206.5 -139.5t253.5 -52zM837 -46q-153 0 -292.5 60t-240.5 161t-161 241t-60 292q0 153 60 292.5t161 241t240.5 161.5t292.5 60t292.5 -60t240.5 -161.5t161 -241t60 -292.5q0 -152 -60 -292t-161 -241t-240.5 -161t-292.5 -60z" />
    <glyph glyph-name="divide.uc.whitecircle" unicode="&#xf7;&#x20dd;" 
d="M1084 681h-494v75h494v-75zM769 917q0 28 19 47t48 19q30 0 50.5 -19t20.5 -47t-20.5 -46t-50.5 -18q-29 0 -48 18t-19 46zM769 522q0 29 19.5 48t48.5 19t49.5 -19t20.5 -47t-20 -46t-50 -18q-29 0 -48.5 18t-19.5 45zM837 54q133 0 253.5 52t206.5 139.5t136.5 208.5
t50.5 254t-50.5 253.5t-136.5 208t-206.5 139.5t-253.5 52t-253.5 -52t-206.5 -139.5t-136.5 -208t-50.5 -253.5t50.5 -254t136.5 -208.5t206.5 -139.5t253.5 -52zM837 -46q-153 0 -292.5 60t-240.5 161t-161 241t-60 292q0 153 60 292.5t161 241t240.5 161.5t292.5 60
t292.5 -60t240.5 -161.5t161 -241t60 -292.5q0 -152 -60 -292t-161 -241t-240.5 -161t-292.5 -60z" />
    <glyph glyph-name="equal.uc.whitecircle" unicode="&#x3d;&#x20dd;" 
d="M1074 573h-474v78h474v-78zM1074 786h-474v78h474v-78zM837 54q133 0 253.5 52t206.5 139.5t136.5 208.5t50.5 254t-50.5 253.5t-136.5 208t-206.5 139.5t-253.5 52t-253.5 -52t-206.5 -139.5t-136.5 -208t-50.5 -253.5t50.5 -254t136.5 -208.5t206.5 -139.5t253.5 -52z
M837 -46q-153 0 -292.5 60t-240.5 161t-161 241t-60 292q0 153 60 292.5t161 241t240.5 161.5t292.5 60t292.5 -60t240.5 -161.5t161 -241t60 -292.5q0 -152 -60 -292t-161 -241t-240.5 -161t-292.5 -60z" />
    <glyph glyph-name="greater.uc.whitecircle" unicode="&#x3e;&#x20dd;" 
d="M1094 745v-72l-463 -253v101l350 188v5l-350 193v102zM837 54q133 0 253.5 52t206.5 139.5t136.5 208.5t50.5 254t-50.5 253.5t-136.5 208t-206.5 139.5t-253.5 52t-253.5 -52t-206.5 -139.5t-136.5 -208t-50.5 -253.5t50.5 -254t136.5 -208.5t206.5 -139.5t253.5 -52z
M837 -46q-153 0 -292.5 60t-240.5 161t-161 241t-60 292q0 153 60 292.5t161 241t240.5 161.5t292.5 60t292.5 -60t240.5 -161.5t161 -241t60 -292.5q0 -152 -60 -292t-161 -241t-240.5 -161t-292.5 -60z" />
    <glyph glyph-name="less.uc.whitecircle" unicode="&#x3c;&#x20dd;" 
d="M581 673v72l462 264v-102l-350 -193v-5l350 -188v-101zM837 54q133 0 253.5 52t206.5 139.5t136.5 208.5t50.5 254t-50.5 253.5t-136.5 208t-206.5 139.5t-253.5 52t-253.5 -52t-206.5 -139.5t-136.5 -208t-50.5 -253.5t50.5 -254t136.5 -208.5t206.5 -139.5t253.5 -52z
M837 -46q-153 0 -292.5 60t-240.5 161t-161 241t-60 292q0 153 60 292.5t161 241t240.5 161.5t292.5 60t292.5 -60t240.5 -161.5t161 -241t60 -292.5q0 -152 -60 -292t-161 -241t-240.5 -161t-292.5 -60z" />
    <glyph glyph-name="numbersign.whitecircle" unicode="&#x30;&#x20dd;" 
d="M1118 804h-115l-33 -156h109l-16 -73h-109l-41 -197h-81l42 197h-145l-42 -197h-81l41 197h-111l15 73h112l33 156h-106l15 74h108l39 189h81l-40 -189h145l40 189h80l-39 -189h114zM774 807l-35 -165h154l35 165h-154zM837 54q133 0 253.5 52t206.5 139.5t136.5 208.5
t50.5 254t-50.5 253.5t-136.5 208t-206.5 139.5t-253.5 52t-253.5 -52t-206.5 -139.5t-136.5 -208t-50.5 -253.5t50.5 -254t136.5 -208.5t206.5 -139.5t253.5 -52zM837 -46q-153 0 -292.5 60t-240.5 161t-161 241t-60 292q0 153 60 292.5t161 241t240.5 161.5t292.5 60
t292.5 -60t240.5 -161.5t161 -241t60 -292.5q0 -152 -60 -292t-161 -241t-240.5 -161t-292.5 -60z" />
    <glyph glyph-name="uni25BC.whitecircle" unicode="&#x25bc;&#x20dd;" 
d="M1129 916l-292 -494l-292 494h584zM837 54q133 0 253.5 52t206.5 139.5t136.5 208.5t50.5 254t-50.5 253.5t-136.5 208t-206.5 139.5t-253.5 52t-253.5 -52t-206.5 -139.5t-136.5 -208t-50.5 -253.5t50.5 -254t136.5 -208.5t206.5 -139.5t253.5 -52zM837 -46
q-153 0 -292.5 60t-240.5 161t-161 241t-60 292q0 153 60 292.5t161 241t240.5 161.5t292.5 60t292.5 -60t240.5 -161.5t161 -241t60 -292.5q0 -152 -60 -292t-161 -241t-240.5 -161t-292.5 -60z" />
    <glyph glyph-name="uni25B2.whitecircle" unicode="&#x25b2;&#x20dd;" 
d="M1129 517h-584l292 494zM837 54q133 0 253.5 52t206.5 139.5t136.5 208.5t50.5 254t-50.5 253.5t-136.5 208t-206.5 139.5t-253.5 52t-253.5 -52t-206.5 -139.5t-136.5 -208t-50.5 -253.5t50.5 -254t136.5 -208.5t206.5 -139.5t253.5 -52zM837 -46q-153 0 -292.5 60
t-240.5 161t-161 241t-60 292q0 153 60 292.5t161 241t240.5 161.5t292.5 60t292.5 -60t240.5 -161.5t161 -241t60 -292.5q0 -152 -60 -292t-161 -241t-240.5 -161t-292.5 -60z" />
    <glyph glyph-name="uni25C0.whitecircle" unicode="&#x25c0;&#x20dd;" 
d="M1031 424l-494 293l494 292v-585zM837 54q133 0 253.5 52t206.5 139.5t136.5 208.5t50.5 254t-50.5 253.5t-136.5 208t-206.5 139.5t-253.5 52t-253.5 -52t-206.5 -139.5t-136.5 -208t-50.5 -253.5t50.5 -254t136.5 -208.5t206.5 -139.5t253.5 -52zM837 -46
q-153 0 -292.5 60t-240.5 161t-161 241t-60 292q0 153 60 292.5t161 241t240.5 161.5t292.5 60t292.5 -60t240.5 -161.5t161 -241t60 -292.5q0 -152 -60 -292t-161 -241t-240.5 -161t-292.5 -60z" />
    <glyph glyph-name="uni25B6.whitecircle" unicode="&#x25b6;&#x20dd;" 
d="M643 424v585l494 -292zM837 54q133 0 253.5 52t206.5 139.5t136.5 208.5t50.5 254t-50.5 253.5t-136.5 208t-206.5 139.5t-253.5 52t-253.5 -52t-206.5 -139.5t-136.5 -208t-50.5 -253.5t50.5 -254t136.5 -208.5t206.5 -139.5t253.5 -52zM837 -46q-153 0 -292.5 60
t-240.5 161t-161 241t-60 292q0 153 60 292.5t161 241t240.5 161.5t292.5 60t292.5 -60t240.5 -161.5t161 -241t60 -292.5q0 -152 -60 -292t-161 -241t-240.5 -161t-292.5 -60z" />
    <glyph glyph-name="question.whitecircle" unicode="&#x3f;&#x20dd;" 
d="M749 441q0 30 21.5 49t53.5 19q34 0 55.5 -19.5t21.5 -48.5q0 -28 -22 -47.5t-55 -19.5q-32 0 -53.5 19t-21.5 48zM774 596v36q-2 50 21.5 86.5t72.5 70.5q48 33 68 57t20 60q0 48 -34.5 74.5t-87.5 26.5q-57 0 -90 -33.5t-34 -83.5h-95q-1 95 64 145t160 50
q94 0 156.5 -46.5t62.5 -127.5q0 -55 -26.5 -91t-79.5 -74q-51 -35 -68 -57.5t-17 -61.5v-31h-93zM837 54q133 0 253.5 52t206.5 139.5t136.5 208.5t50.5 254t-50.5 253.5t-136.5 208t-206.5 139.5t-253.5 52t-253.5 -52t-206.5 -139.5t-136.5 -208t-50.5 -253.5t50.5 -254
t136.5 -208.5t206.5 -139.5t253.5 -52zM837 -46q-153 0 -292.5 60t-240.5 161t-161 241t-60 292q0 153 60 292.5t161 241t240.5 161.5t292.5 60t292.5 -60t240.5 -161.5t161 -241t60 -292.5q0 -152 -60 -292t-161 -241t-240.5 -161t-292.5 -60z" />
    <glyph glyph-name="exclam.whitecircle" unicode="&#x21;&#x20dd;" 
d="M761 441q0 30 21.5 49.5t54.5 19.5t55 -20t22 -49q0 -28 -22 -47.5t-55 -19.5t-54.5 19t-21.5 48zM783 1070h109l-11 -455h-88zM837 54q133 0 253.5 52t206.5 139.5t136.5 208.5t50.5 254t-50.5 253.5t-136.5 208t-206.5 139.5t-253.5 52t-253.5 -52t-206.5 -139.5
t-136.5 -208t-50.5 -253.5t50.5 -254t136.5 -208.5t206.5 -139.5t253.5 -52zM837 -46q-153 0 -292.5 60t-240.5 161t-161 241t-60 292q0 153 60 292.5t161 241t240.5 161.5t292.5 60t292.5 -60t240.5 -161.5t161 -241t60 -292.5q0 -152 -60 -292t-161 -241t-240.5 -161
t-292.5 -60z" />
    <glyph glyph-name="uni2717.whitecircle" unicode="&#x2717;&#x20dd;" 
d="M840 782l266 266l66 -66l-265 -266l265 -266l-66 -67l-266 266l-266 -266l-67 67l265 266l-266 267l66 66zM837 54q133 0 253.5 52t206.5 139.5t136.5 208.5t50.5 254t-50.5 253.5t-136.5 208t-206.5 139.5t-253.5 52t-253.5 -52t-206.5 -139.5t-136.5 -208t-50.5 -253.5
t50.5 -254t136.5 -208.5t206.5 -139.5t253.5 -52zM837 -46q-153 0 -292.5 60t-240.5 161t-161 241t-60 292q0 153 60 292.5t161 241t240.5 161.5t292.5 60t292.5 -60t240.5 -161.5t161 -241t60 -292.5q0 -152 -60 -292t-161 -241t-240.5 -161t-292.5 -60z" />
    <glyph glyph-name="uni2713.whitecircle" unicode="&#x2713;&#x20dd;" 
d="M1255 952l-541 -540l-283 283l70 70l213 -214l470 472zM837 54q133 0 253.5 52t206.5 139.5t136.5 208.5t50.5 254t-50.5 253.5t-136.5 208t-206.5 139.5t-253.5 52t-253.5 -52t-206.5 -139.5t-136.5 -208t-50.5 -253.5t50.5 -254t136.5 -208.5t206.5 -139.5t253.5 -52z
M837 -46q-153 0 -292.5 60t-240.5 161t-161 241t-60 292q0 153 60 292.5t161 241t240.5 161.5t292.5 60t292.5 -60t240.5 -161.5t161 -241t60 -292.5q0 -152 -60 -292t-161 -241t-240.5 -161t-292.5 -60z" />
    <glyph glyph-name="zero.whitesquare" unicode="&#x30;&#x20de;" 
d="M837 452q73 0 117 73t44 197q0 125 -44 197.5t-117 72.5t-117 -72.5t-44 -197.5q0 -124 44 -197t117 -73zM837 365q-116 0 -187.5 96t-71.5 261q0 166 71.5 262t187.5 96t187.5 -96t71.5 -262q0 -165 -71.5 -261t-187.5 -96zM348 1439h978q101 0 170 -68t69 -168v-986
q0 -100 -69 -167.5t-170 -67.5h-978q-101 0 -170 67.5t-69 167.5v986q0 100 69 168t170 68zM1464 1202q0 62 -41.5 103t-105.5 41h-960q-63 0 -105 -40.5t-42 -103.5v-983q0 -63 42 -103.5t105 -40.5h960q64 0 105.5 40.5t41.5 103.5v983z" />
    <glyph glyph-name="one.whitesquare" unicode="&#x31;&#x20de;" 
d="M925 382h-103v589h-5l-170 -114v95l175 118h103v-688zM348 1439h978q101 0 170 -68t69 -168v-986q0 -100 -69 -167.5t-170 -67.5h-978q-101 0 -170 67.5t-69 167.5v986q0 100 69 168t170 68zM1464 1202q0 62 -41.5 103t-105.5 41h-960q-63 0 -105 -40.5t-42 -103.5v-983
q0 -63 42 -103.5t105 -40.5h960q64 0 105.5 40.5t41.5 103.5v983z" />
    <glyph glyph-name="two.whitesquare" unicode="&#x32;&#x20de;" 
d="M702 876h-99v4q0 84 63.5 144t171.5 60q103 0 166 -53.5t63 -136.5q0 -56 -29 -101.5t-93 -113.5l-193 -209v-5h331v-83h-473v63l272 290q41 44 62 78.5t21 73.5q0 51 -36 83.5t-93 32.5q-60 0 -97 -35.5t-37 -87.5v-4zM348 1439h978q101 0 170 -68t69 -168v-986
q0 -100 -69 -167.5t-170 -67.5h-978q-101 0 -170 67.5t-69 167.5v986q0 100 69 168t170 68zM1464 1202q0 62 -41.5 103t-105.5 41h-960q-63 0 -105 -40.5t-42 -103.5v-983q0 -63 42 -103.5t105 -40.5h960q64 0 105.5 40.5t41.5 103.5v983z" />
    <glyph glyph-name="three.whitesquare" unicode="&#x33;&#x20de;" 
d="M759 698v79h78q56 0 93.5 33t37.5 83q-1 49 -38 80.5t-95 31.5q-55 0 -92.5 -29.5t-40.5 -70.5h-96q2 76 65 127t166 52q103 0 167 -50t66 -127q1 -65 -41.5 -109t-94.5 -53v-6q62 -6 110 -50.5t49 -117.5q1 -91 -73 -147t-185 -56q-107 0 -173.5 52t-71.5 130h96
q4 -43 46.5 -72.5t102.5 -29.5q69 0 112.5 35.5t43.5 91.5q-2 53 -43.5 88t-106.5 35h-82zM348 1439h978q101 0 170 -68t69 -168v-986q0 -100 -69 -167.5t-170 -67.5h-978q-101 0 -170 67.5t-69 167.5v986q0 100 69 168t170 68zM1464 1202q0 62 -41.5 103t-105.5 41h-960
q-63 0 -105 -40.5t-42 -103.5v-983q0 -63 42 -103.5t105 -40.5h960q64 0 105.5 40.5t41.5 103.5v983z" />
    <glyph glyph-name="four.whitesquare" unicode="&#x34;&#x20de;" 
d="M849 1070h151v-465h97v-82h-97v-141h-97v141h-350v85q27 47 69 114t73 114.5t84 127.5t70 106zM651 605h252v387h-6q-164 -240 -246 -383v-4zM348 1439h978q101 0 170 -68t69 -168v-986q0 -100 -69 -167.5t-170 -67.5h-978q-101 0 -170 67.5t-69 167.5v986q0 100 69 168
t170 68zM1464 1202q0 62 -41.5 103t-105.5 41h-960q-63 0 -105 -40.5t-42 -103.5v-983q0 -63 42 -103.5t105 -40.5h960q64 0 105.5 40.5t41.5 103.5v983z" />
    <glyph glyph-name="five.whitesquare" unicode="&#x35;&#x20de;" 
d="M596 549h96q9 -46 51 -73t97 -27q64 0 109.5 43t45.5 113q0 65 -44 106t-109 41q-91 0 -141 -76h-91l32 395h416v-82h-332l-19 -225h5q19 27 60 47t94 20q98 0 164 -61t66 -162q0 -107 -72.5 -173.5t-188.5 -66.5q-100 0 -167 51.5t-72 129.5zM348 1439h978
q101 0 170 -68t69 -168v-986q0 -100 -69 -167.5t-170 -67.5h-978q-101 0 -170 67.5t-69 167.5v986q0 100 69 168t170 68zM1464 1202q0 62 -41.5 103t-105.5 41h-960q-63 0 -105 -40.5t-42 -103.5v-983q0 -63 42 -103.5t105 -40.5h960q64 0 105.5 40.5t41.5 103.5v983z" />
    <glyph glyph-name="six.whitesquare" unicode="&#x36;&#x20de;" 
d="M1082 923h-99q-10 33 -44.5 56t-85.5 23q-81 0 -129 -75t-47 -206v-3h6q21 47 69.5 78t119.5 31q93 0 159.5 -60.5t66.5 -160.5q0 -109 -70.5 -173.5t-183.5 -64.5q-148 0 -217 113q-49 81 -49 224q0 185 73.5 281t203.5 96q95 0 157.5 -48t69.5 -111zM692 601
q0 -68 43.5 -110t109.5 -42q68 0 110.5 40t42.5 111q0 69 -44 109t-109 40q-67 0 -110 -41.5t-43 -106.5zM348 1439h978q101 0 170 -68t69 -168v-986q0 -100 -69 -167.5t-170 -67.5h-978q-101 0 -170 67.5t-69 167.5v986q0 100 69 168t170 68zM1464 1202q0 62 -41.5 103
t-105.5 41h-960q-63 0 -105 -40.5t-42 -103.5v-983q0 -63 42 -103.5t105 -40.5h960q64 0 105.5 40.5t41.5 103.5v983z" />
    <glyph glyph-name="seven.whitesquare" unicode="&#x37;&#x20de;" 
d="M607 1070h473v-84l-296 -604h-109l301 600v6h-369v82zM348 1439h978q101 0 170 -68t69 -168v-986q0 -100 -69 -167.5t-170 -67.5h-978q-101 0 -170 67.5t-69 167.5v986q0 100 69 168t170 68zM1464 1202q0 62 -41.5 103t-105.5 41h-960q-63 0 -105 -40.5t-42 -103.5v-983
q0 -63 42 -103.5t105 -40.5h960q64 0 105.5 40.5t41.5 103.5v983z" />
    <glyph glyph-name="eight.whitesquare" unicode="&#x38;&#x20de;" 
d="M838 444q71 0 116.5 37t45.5 95q0 57 -45.5 93.5t-116.5 36.5t-117.5 -37t-46.5 -93q0 -58 46.5 -95t117.5 -37zM838 778q59 0 97.5 32.5t38.5 83.5q0 50 -38 82t-98 32t-98.5 -32t-38.5 -82q0 -51 38.5 -83.5t98.5 -32.5zM836 368q-117 0 -190 56t-73 147q0 63 42 111
t108 61v5q-56 17 -89 58.5t-33 95.5q0 79 66.5 130.5t170.5 51.5q103 0 169.5 -51.5t66.5 -130.5q0 -54 -33.5 -96t-88.5 -58v-5q66 -13 108 -61t42 -111q0 -90 -74 -146.5t-192 -56.5zM348 1439h978q101 0 170 -68t69 -168v-986q0 -100 -69 -167.5t-170 -67.5h-978
q-101 0 -170 67.5t-69 167.5v986q0 100 69 168t170 68zM1464 1202q0 62 -41.5 103t-105.5 41h-960q-63 0 -105 -40.5t-42 -103.5v-983q0 -63 42 -103.5t105 -40.5h960q64 0 105.5 40.5t41.5 103.5v983z" />
    <glyph glyph-name="nine.whitesquare" unicode="&#x39;&#x20de;" 
d="M576 850q0 106 72 169.5t183 63.5q118 0 191.5 -79.5t73.5 -255.5q0 -187 -70.5 -283t-207.5 -96q-94 0 -154.5 45.5t-69.5 109.5h99q9 -31 44 -53t83 -22q90 0 135.5 77.5t42.5 205.5h-5q-21 -49 -69 -79.5t-118 -30.5q-97 0 -163.5 62.5t-66.5 165.5zM981 850
q0 69 -43.5 111.5t-109.5 42.5t-109 -41.5t-43 -110.5q0 -70 43 -111t109 -41t109.5 40.5t43.5 109.5zM348 1439h978q101 0 170 -68t69 -168v-986q0 -100 -69 -167.5t-170 -67.5h-978q-101 0 -170 67.5t-69 167.5v986q0 100 69 168t170 68zM1464 1202q0 62 -41.5 103
t-105.5 41h-960q-63 0 -105 -40.5t-42 -103.5v-983q0 -63 42 -103.5t105 -40.5h960q64 0 105.5 40.5t41.5 103.5v983z" />
    <glyph glyph-name="plus.uc.whitesquare" unicode="&#x2b;&#x20de;" 
d="M880 680v-223h-87v223h-216v83h216v214h87v-214h216v-83h-216zM348 1439h978q101 0 170 -68t69 -168v-986q0 -100 -69 -167.5t-170 -67.5h-978q-101 0 -170 67.5t-69 167.5v986q0 100 69 168t170 68zM1464 1202q0 62 -41.5 103t-105.5 41h-960q-63 0 -105 -40.5
t-42 -103.5v-983q0 -63 42 -103.5t105 -40.5h960q64 0 105.5 40.5t41.5 103.5v983z" />
    <glyph glyph-name="minus.uc.whitesquare" unicode="&#x2212;&#x20de;" 
d="M1084 677h-494v84h494v-84zM348 1439h978q101 0 170 -68t69 -168v-986q0 -100 -69 -167.5t-170 -67.5h-978q-101 0 -170 67.5t-69 167.5v986q0 100 69 168t170 68zM1464 1202q0 62 -41.5 103t-105.5 41h-960q-63 0 -105 -40.5t-42 -103.5v-983q0 -63 42 -103.5t105 -40.5
h960q64 0 105.5 40.5t41.5 103.5v983z" />
    <glyph glyph-name="multiply.uc.whitesquare" unicode="&#xd7;&#x20de;" 
d="M838 777l162 157l62 -59l-162 -157l162 -157l-62 -59l-162 157l-164 -160l-62 59l165 160l-162 157l61 59zM348 1439h978q101 0 170 -68t69 -168v-986q0 -100 -69 -167.5t-170 -67.5h-978q-101 0 -170 67.5t-69 167.5v986q0 100 69 168t170 68zM1464 1202q0 62 -41.5 103
t-105.5 41h-960q-63 0 -105 -40.5t-42 -103.5v-983q0 -63 42 -103.5t105 -40.5h960q64 0 105.5 40.5t41.5 103.5v983z" />
    <glyph glyph-name="divide.uc.whitesquare" unicode="&#xf7;&#x20de;" 
d="M1084 681h-494v75h494v-75zM769 917q0 28 19 47t48 19q30 0 50.5 -19t20.5 -47t-20.5 -46t-50.5 -18q-29 0 -48 18t-19 46zM769 522q0 29 19.5 48t48.5 19t49.5 -19t20.5 -47t-20 -46t-50 -18q-29 0 -48.5 18t-19.5 45zM348 1439h978q101 0 170 -68t69 -168v-986
q0 -100 -69 -167.5t-170 -67.5h-978q-101 0 -170 67.5t-69 167.5v986q0 100 69 168t170 68zM1464 1202q0 62 -41.5 103t-105.5 41h-960q-63 0 -105 -40.5t-42 -103.5v-983q0 -63 42 -103.5t105 -40.5h960q64 0 105.5 40.5t41.5 103.5v983z" />
    <glyph glyph-name="equal.uc.whitesquare" unicode="&#x3d;&#x20de;" 
d="M1074 573h-474v78h474v-78zM1074 786h-474v78h474v-78zM348 1439h978q101 0 170 -68t69 -168v-986q0 -100 -69 -167.5t-170 -67.5h-978q-101 0 -170 67.5t-69 167.5v986q0 100 69 168t170 68zM1464 1202q0 62 -41.5 103t-105.5 41h-960q-63 0 -105 -40.5t-42 -103.5v-983
q0 -63 42 -103.5t105 -40.5h960q64 0 105.5 40.5t41.5 103.5v983z" />
    <glyph glyph-name="greater.uc.whitesquare" unicode="&#x3e;&#x20de;" 
d="M1094 745v-72l-463 -253v101l350 188v5l-350 193v102zM348 1439h978q101 0 170 -68t69 -168v-986q0 -100 -69 -167.5t-170 -67.5h-978q-101 0 -170 67.5t-69 167.5v986q0 100 69 168t170 68zM1464 1202q0 62 -41.5 103t-105.5 41h-960q-63 0 -105 -40.5t-42 -103.5v-983
q0 -63 42 -103.5t105 -40.5h960q64 0 105.5 40.5t41.5 103.5v983z" />
    <glyph glyph-name="less.uc.whitesquare" unicode="&#x3c;&#x20de;" 
d="M581 673v72l462 264v-102l-350 -193v-5l350 -188v-101zM348 1439h978q101 0 170 -68t69 -168v-986q0 -100 -69 -167.5t-170 -67.5h-978q-101 0 -170 67.5t-69 167.5v986q0 100 69 168t170 68zM1464 1202q0 62 -41.5 103t-105.5 41h-960q-63 0 -105 -40.5t-42 -103.5v-983
q0 -63 42 -103.5t105 -40.5h960q64 0 105.5 40.5t41.5 103.5v983z" />
    <glyph glyph-name="numbersign.whitesquare" unicode="&#x23;&#x20de;" 
d="M1118 804h-115l-33 -156h109l-16 -73h-109l-41 -197h-81l42 197h-145l-42 -197h-81l41 197h-111l15 73h112l33 156h-106l15 74h108l39 189h81l-40 -189h145l40 189h80l-39 -189h114zM774 807l-35 -165h154l35 165h-154zM348 1439h978q101 0 170 -68t69 -168v-986
q0 -100 -69 -167.5t-170 -67.5h-978q-101 0 -170 67.5t-69 167.5v986q0 100 69 168t170 68zM1464 1202q0 62 -41.5 103t-105.5 41h-960q-63 0 -105 -40.5t-42 -103.5v-983q0 -63 42 -103.5t105 -40.5h960q64 0 105.5 40.5t41.5 103.5v983z" />
    <glyph glyph-name="uni25BC.whitesquare" unicode="&#x25bc;&#x20de;" 
d="M1130 916l-292 -494l-293 494h585zM348 1439h978q101 0 170 -68t69 -168v-986q0 -100 -69 -167.5t-170 -67.5h-978q-101 0 -170 67.5t-69 167.5v986q0 100 69 168t170 68zM1464 1202q0 62 -41.5 103t-105.5 41h-960q-63 0 -105 -40.5t-42 -103.5v-983q0 -63 42 -103.5
t105 -40.5h960q64 0 105.5 40.5t41.5 103.5v983z" />
    <glyph glyph-name="uni25B2.whitesquare" unicode="&#x25b2;&#x20de;" 
d="M1129 517h-584l292 494zM348 1439h978q101 0 170 -68t69 -168v-986q0 -100 -69 -167.5t-170 -67.5h-978q-101 0 -170 67.5t-69 167.5v986q0 100 69 168t170 68zM1464 1202q0 62 -41.5 103t-105.5 41h-960q-63 0 -105 -40.5t-42 -103.5v-983q0 -63 42 -103.5t105 -40.5
h960q64 0 105.5 40.5t41.5 103.5v983z" />
    <glyph glyph-name="uni25C0.whitesquare" unicode="&#x25c0;&#x20de;" 
d="M1031 424l-494 293l494 292v-585zM348 1439h978q101 0 170 -68t69 -168v-986q0 -100 -69 -167.5t-170 -67.5h-978q-101 0 -170 67.5t-69 167.5v986q0 100 69 168t170 68zM1464 1202q0 62 -41.5 103t-105.5 41h-960q-63 0 -105 -40.5t-42 -103.5v-983q0 -63 42 -103.5
t105 -40.5h960q64 0 105.5 40.5t41.5 103.5v983z" />
    <glyph glyph-name="uni25B6.whitesquare" unicode="&#x25b6;&#x20de;" 
d="M643 424v585l494 -292zM348 1439h978q101 0 170 -68t69 -168v-986q0 -100 -69 -167.5t-170 -67.5h-978q-101 0 -170 67.5t-69 167.5v986q0 100 69 168t170 68zM1464 1202q0 62 -41.5 103t-105.5 41h-960q-63 0 -105 -40.5t-42 -103.5v-983q0 -63 42 -103.5t105 -40.5h960
q64 0 105.5 40.5t41.5 103.5v983z" />
    <glyph glyph-name="question.whitesquare" unicode="&#x3f;&#x20de;" 
d="M749 441q0 30 21.5 49t53.5 19q34 0 55.5 -19.5t21.5 -48.5q0 -28 -22 -47.5t-55 -19.5q-32 0 -53.5 19t-21.5 48zM615 890q-1 95 64 145t160 50q94 0 156.5 -46.5t62.5 -127.5q0 -55 -26.5 -91t-79.5 -74q-51 -35 -68 -57.5t-17 -61.5v-31h-93v36q-2 50 21.5 86.5
t72.5 70.5q48 33 68 57t20 60q0 48 -34.5 74.5t-87.5 26.5q-57 0 -90 -33.5t-34 -83.5h-95zM348 1439h978q101 0 170 -68t69 -168v-986q0 -100 -69 -167.5t-170 -67.5h-978q-101 0 -170 67.5t-69 167.5v986q0 100 69 168t170 68zM1464 1202q0 62 -41.5 103t-105.5 41h-960
q-63 0 -105 -40.5t-42 -103.5v-983q0 -63 42 -103.5t105 -40.5h960q64 0 105.5 40.5t41.5 103.5v983z" />
    <glyph glyph-name="exclam.whitesquare" unicode="&#x21;&#x20de;" 
d="M761 441q0 30 21.5 49.5t54.5 19.5t55 -20t22 -49q0 -28 -22 -47.5t-55 -19.5t-54.5 19t-21.5 48zM783 1070h109l-11 -455h-88zM348 1439h978q101 0 170 -68t69 -168v-986q0 -100 -69 -167.5t-170 -67.5h-978q-101 0 -170 67.5t-69 167.5v986q0 100 69 168t170 68z
M1464 1202q0 62 -41.5 103t-105.5 41h-960q-63 0 -105 -40.5t-42 -103.5v-983q0 -63 42 -103.5t105 -40.5h960q64 0 105.5 40.5t41.5 103.5v983z" />
    <glyph glyph-name="uni2717.whitesquare" unicode="&#x2717;&#x20de;" 
d="M840 782l266 266l66 -66l-265 -266l265 -266l-66 -67l-266 266l-266 -266l-67 67l265 266l-266 267l66 66zM348 1439h978q101 0 170 -68t69 -168v-986q0 -100 -69 -167.5t-170 -67.5h-978q-101 0 -170 67.5t-69 167.5v986q0 100 69 168t170 68zM1464 1202q0 62 -41.5 103
t-105.5 41h-960q-63 0 -105 -40.5t-42 -103.5v-983q0 -63 42 -103.5t105 -40.5h960q64 0 105.5 40.5t41.5 103.5v983z" />
    <glyph glyph-name="uni2713.whitesquare" unicode="&#x2713;&#x20de;" 
d="M1255 952l-541 -540l-283 283l70 70l213 -214l470 472zM348 1439h978q101 0 170 -68t69 -168v-986q0 -100 -69 -167.5t-170 -67.5h-978q-101 0 -170 67.5t-69 167.5v986q0 100 69 168t170 68zM1464 1202q0 62 -41.5 103t-105.5 41h-960q-63 0 -105 -40.5t-42 -103.5v-983
q0 -63 42 -103.5t105 -40.5h960q64 0 105.5 40.5t41.5 103.5v983z" />
    <glyph glyph-name="plus.uc.blackcircle" unicode="&#x2b;&#x20dd;&#x25cf;" 
d="M890 674h232v98h-232v231h-106v-231h-232v-98h232v-241h106v241zM837 -46q-153 0 -292.5 60t-240.5 161t-161 240.5t-60 292.5t60 292.5t161 240.5t240.5 161t292.5 60t292.5 -60t240.5 -161t161 -240.5t60 -292.5t-60 -292.5t-161 -240.5t-240.5 -161t-292.5 -60z" />
    <glyph glyph-name="minus.uc.blackcircle" unicode="&#x2212;&#x20dd;&#x25cf;" 
d="M1108 669v101h-542v-101h542zM837 -46q-153 0 -292.5 60t-240.5 161t-161 240.5t-60 292.5t60 292.5t161 240.5t240.5 161t292.5 60t292.5 -60t240.5 -161t161 -240.5t60 -292.5t-60 -292.5t-161 -240.5t-240.5 -161t-292.5 -60z" />
    <glyph glyph-name="multiply.uc.blackcircle" unicode="&#xd7;&#x20dd;&#x25cf;" 
d="M835 787l-174 169l-75 -72l174 -169l-174 -168l75 -72l174 168l174 -168l74 72l-174 168l174 169l-74 72zM837 -46q-153 0 -292.5 60t-240.5 161t-161 240.5t-60 292.5t60 292.5t161 240.5t240.5 161t292.5 60t292.5 -60t240.5 -161t161 -240.5t60 -292.5t-60 -292.5
t-161 -240.5t-240.5 -161t-292.5 -60z" />
    <glyph glyph-name="divide.uc.blackcircle" unicode="&#xf7;&#x20dd;&#x25cf;" 
d="M757 934q0 -32 23 -53t56 -21q34 0 58 21t24 53q0 34 -23.5 56t-58.5 22q-33 0 -56 -22.5t-23 -55.5zM1108 673v91h-542v-91h542zM757 506q0 -32 23 -53t57 -21t57.5 21.5t23.5 53.5q0 33 -23.5 54.5t-57.5 21.5t-57 -22t-23 -55zM837 -46q-153 0 -292.5 60t-240.5 161
t-161 240.5t-60 292.5t60 292.5t161 240.5t240.5 161t292.5 60t292.5 -60t240.5 -161t161 -240.5t60 -292.5t-60 -292.5t-161 -240.5t-240.5 -161t-292.5 -60z" />
    <glyph glyph-name="equal.uc.blackcircle" unicode="&#x3d;&#x20dd;&#x25cf;" 
d="M1096 787v95h-518v-95h518zM1096 557v94h-518v-94h518zM837 -46q-153 0 -292.5 60t-240.5 161t-161 240.5t-60 292.5t60 292.5t161 240.5t240.5 161t292.5 60t292.5 -60t240.5 -161t161 -240.5t60 -292.5t-60 -292.5t-161 -240.5t-240.5 -161t-292.5 -60z" />
    <glyph glyph-name="greater.uc.blackcircle" unicode="&#x3e;&#x20dd;&#x25cf;" 
d="M1113 752l-508 288v-119l379 -209v-2l-379 -201v-119l508 277v85zM837 -46q-153 0 -292.5 60t-240.5 161t-161 240.5t-60 292.5t60 292.5t161 240.5t240.5 161t292.5 60t292.5 -60t240.5 -161t161 -240.5t60 -292.5t-60 -292.5t-161 -240.5t-240.5 -161t-292.5 -60z" />
    <glyph glyph-name="less.uc.blackcircle" unicode="&#x3c;&#x20dd;&#x25cf;" 
d="M555 667l508 -277v119l-378 201v2l378 209v119l-508 -288v-85zM837 -46q-153 0 -292.5 60t-240.5 161t-161 240.5t-60 292.5t60 292.5t161 240.5t240.5 161t292.5 60t292.5 -60t240.5 -161t161 -240.5t60 -292.5t-60 -292.5t-161 -240.5t-240.5 -161t-292.5 -60z" />
    <glyph glyph-name="numbersign.blackcircle" unicode="&#x23;&#x20dd;&#x25cf;" 
d="M773 809h156l-36 -169h-156zM1143 807l18 89h-122l43 203h-98l-42 -203h-146l43 203h-98l-42 -203h-117l-18 -89h115l-33 -158h-121l-18 -91h119l-44 -210h98l44 210h147l-45 -210h98l44 210h116l19 91h-116l33 158h123zM837 -46q-153 0 -292.5 60t-240.5 161t-161 240.5
t-60 292.5t60 292.5t161 240.5t240.5 161t292.5 60t292.5 -60t240.5 -161t161 -240.5t60 -292.5t-60 -292.5t-161 -240.5t-240.5 -161t-292.5 -60z" />
    <glyph glyph-name="uni25BC.blackcircle" unicode="&#x25bc;&#x20dd;&#x25cf;" 
d="M1156 944h-637l318 -540zM837 -46q-153 0 -292.5 60t-240.5 161t-161 240.5t-60 292.5t60 292.5t161 240.5t240.5 161t292.5 60t292.5 -60t240.5 -161t161 -240.5t60 -292.5t-60 -292.5t-161 -240.5t-240.5 -161t-292.5 -60z" />
    <glyph glyph-name="uni25B2.blackcircle" unicode="&#x25b2;&#x20dd;&#x25cf;" 
d="M1156 499l-319 540l-318 -540h637zM837 -46q-153 0 -292.5 60t-240.5 161t-161 240.5t-60 292.5t60 292.5t161 240.5t240.5 161t292.5 60t292.5 -60t240.5 -161t161 -240.5t60 -292.5t-60 -292.5t-161 -240.5t-240.5 -161t-292.5 -60z" />
    <glyph glyph-name="uni25C0.blackcircle" unicode="&#x25c0;&#x20dd;&#x25cf;" 
d="M1054 404v636l-540 -318zM837 -46q-153 0 -292.5 60t-240.5 161t-161 240.5t-60 292.5t60 292.5t161 240.5t240.5 161t292.5 60t292.5 -60t240.5 -161t161 -240.5t60 -292.5t-60 -292.5t-161 -240.5t-240.5 -161t-292.5 -60z" />
    <glyph glyph-name="uni25B6.blackcircle" unicode="&#x25b6;&#x20dd;&#x25cf;" 
d="M620 404l540 318l-540 318v-636zM837 -46q-153 0 -292.5 60t-240.5 161t-161 240.5t-60 292.5t60 292.5t161 240.5t240.5 161t292.5 60t292.5 -60t240.5 -161t161 -240.5t60 -292.5t-60 -292.5t-161 -240.5t-240.5 -161t-292.5 -60z" />
    <glyph glyph-name="question.blackcircle" unicode="&#x3f;&#x20dd;&#x25cf;" 
d="M733 418q0 -33 25 -55.5t62 -22.5q39 0 64 22.5t25 55.5q0 35 -25 57.5t-64 22.5q-37 0 -62 -22.5t-25 -57.5zM761 582h110v37q0 41 18 64.5t71 61.5q58 41 87.5 80.5t29.5 101.5q0 88 -69.5 140t-171.5 52q-104 0 -175 -55t-71 -161v-3h112q2 55 36 89t93 34
q54 0 90 -27t36 -75q0 -36 -21.5 -62t-71.5 -61q-54 -37 -80 -77t-23 -95v-44zM837 -46q-153 0 -292.5 60t-240.5 161t-161 240.5t-60 292.5t60 292.5t161 240.5t240.5 161t292.5 60t292.5 -60t240.5 -161t161 -240.5t60 -292.5t-60 -292.5t-161 -240.5t-240.5 -161
t-292.5 -60z" />
    <glyph glyph-name="exclam.blackcircle" unicode="&#x21;&#x20dd;&#x25cf;" 
d="M772 1102l12 -499h106l12 499h-130zM749 419q0 -33 25 -55.5t63 -22.5t63 22.5t25 55.5q0 34 -25 56.5t-63 22.5t-63 -22.5t-25 -56.5zM837 -46q-153 0 -292.5 60t-240.5 161t-161 240.5t-60 292.5t60 292.5t161 240.5t240.5 161t292.5 60t292.5 -60t240.5 -161
t161 -240.5t60 -292.5t-60 -292.5t-161 -240.5t-240.5 -161t-292.5 -60z" />
    <glyph glyph-name="uni2717.blackcircle" unicode="&#x2717;&#x20dd;&#x25cf;" 
d="M840 792l-289 289l-75 -74l288 -289l-287 -288l75 -75l288 287l288 -287l74 75l-288 288l288 287l-74 75zM837 -46q-153 0 -292.5 60t-240.5 161t-161 240.5t-60 292.5t60 292.5t161 240.5t240.5 161t292.5 60t292.5 -60t240.5 -161t161 -240.5t60 -292.5t-60 -292.5
t-161 -240.5t-240.5 -161t-292.5 -60z" />
    <glyph glyph-name="uni2713.blackcircle" unicode="&#x2713;&#x20dd;&#x25cf;" 
d="M703 386l588 588l-78 80l-511 -512l-228 230l-79 -78zM837 -46q-153 0 -292.5 60t-240.5 161t-161 240.5t-60 292.5t60 292.5t161 240.5t240.5 161t292.5 60t292.5 -60t240.5 -161t161 -240.5t60 -292.5t-60 -292.5t-161 -240.5t-240.5 -161t-292.5 -60z" />
    <glyph glyph-name="zero.blacksquare" unicode="&#x30;&#x20de;&#x25a0;" 
d="M834 432q-77 0 -121 77.5t-44 212.5q0 136 44 213t121 77t121 -77t44 -213q0 -135 -44 -212.5t-121 -77.5zM834 332q131 0 209 105.5t78 284.5t-78 285t-209 106q-130 0 -208.5 -106t-78.5 -285t78.5 -284.5t208.5 -105.5zM348 1439h978q101 0 170 -68t69 -168v-986
q0 -100 -69 -167.5t-170 -67.5h-978q-101 0 -170 67.5t-69 167.5v986q0 100 69 168t170 68z" />
    <glyph glyph-name="one.blacksquare" unicode="&#x31;&#x20de;&#x25a0;" 
d="M937 351v751h-118l-190 -130v-114l186 127h2v-634h120zM348 1439h978q101 0 170 -68t69 -168v-986q0 -100 -69 -167.5t-170 -67.5h-978q-101 0 -170 67.5t-69 167.5v986q0 100 69 168t170 68z" />
    <glyph glyph-name="two.blacksquare" unicode="&#x32;&#x20de;&#x25a0;" 
d="M694 884v8q1 54 39 90.5t99 36.5q57 0 95 -33t38 -85q0 -43 -21.5 -79.5t-64.5 -82.5l-294 -313v-76h518v100h-354v1l216 230q63 69 92 117.5t29 109.5q0 91 -70.5 149.5t-181.5 58.5q-119 0 -187.5 -66t-69.5 -158v-8h117zM348 1439h978q101 0 170 -68t69 -168v-986
q0 -100 -69 -167.5t-170 -67.5h-978q-101 0 -170 67.5t-69 167.5v986q0 100 69 168t170 68z" />
    <glyph glyph-name="three.blacksquare" unicode="&#x33;&#x20de;&#x25a0;" 
d="M747 691h93q67 0 110 -36t44 -92q0 -58 -44.5 -94.5t-117.5 -36.5q-63 1 -107 32t-51 76h-112q5 -88 78 -146t191 -58q122 0 203.5 62t80.5 162q-2 79 -52 128t-115 56v1q55 12 99 60t43 118q-2 84 -73 139.5t-183 55.5q-113 -1 -181.5 -57.5t-73.5 -144.5h114
q5 45 43 75t96 30q61 0 99.5 -32t38.5 -82q0 -52 -38 -86t-98 -34h-87v-96zM348 1439h978q101 0 170 -68t69 -168v-986q0 -100 -69 -167.5t-170 -67.5h-978q-101 0 -170 67.5t-69 167.5v986q0 100 69 168t170 68z" />
    <glyph glyph-name="four.blacksquare" unicode="&#x34;&#x20de;&#x25a0;" 
d="M844 1102q-259 -395 -319 -501v-97h375v-153h116v153h104v98h-104v500h-172zM641 602v2q88 150 258 401h1v-403h-259zM348 1439h978q101 0 170 -68t69 -168v-986q0 -100 -69 -167.5t-170 -67.5h-978q-101 0 -170 67.5t-69 167.5v986q0 100 69 168t170 68z" />
    <glyph glyph-name="five.blacksquare" unicode="&#x35;&#x20de;&#x25a0;" 
d="M569 539q5 -87 79 -144.5t184 -57.5q127 0 206 72.5t79 190.5q0 110 -72.5 177t-179.5 67q-56 0 -99 -20.5t-65 -49.5h-1q10 150 19 231h355v98h-455l-34 -434h106q52 80 148 80q68 0 113.5 -42.5t45.5 -110.5q0 -72 -47 -117t-113 -45q-57 0 -102 28.5t-54 76.5h-113z
M348 1439h978q101 0 170 -68t69 -168v-986q0 -100 -69 -167.5t-170 -67.5h-978q-101 0 -170 67.5t-69 167.5v986q0 100 69 168t170 68z" />
    <glyph glyph-name="six.blacksquare" unicode="&#x36;&#x20de;&#x25a0;" 
d="M1120 597q0 110 -72.5 176t-174.5 66q-149 0 -206 -118l-2 -2v3q-1 137 49.5 216.5t136.5 79.5q52 0 88 -24.5t47 -57.5h117q-8 71 -76.5 125.5t-172.5 54.5q-142 0 -223 -105.5t-81 -306.5q0 -168 65 -258q38 -54 98 -82t129 -28q123 0 200.5 70.5t77.5 190.5zM683 592
q0 67 45 110t116 43q67 0 112.5 -41.5t45.5 -112.5q0 -74 -44.5 -116t-114.5 -42q-68 0 -114 44t-46 115zM348 1439h978q101 0 170 -68t69 -168v-986q0 -100 -69 -167.5t-170 -67.5h-978q-101 0 -170 67.5t-69 167.5v986q0 100 69 168t170 68z" />
    <glyph glyph-name="seven.blacksquare" unicode="&#x37;&#x20de;&#x25a0;" 
d="M582 1102v-100h395v-1l-328 -650h129l322 653v98h-518zM348 1439h978q101 0 170 -68t69 -168v-986q0 -100 -69 -167.5t-170 -67.5h-978q-101 0 -170 67.5t-69 167.5v986q0 100 69 168t170 68z" />
    <glyph glyph-name="eight.blacksquare" unicode="&#x38;&#x20de;&#x25a0;" 
d="M835 788q-62 0 -101.5 33t-39.5 86q0 52 39.5 85t101.5 33t101.5 -33t39.5 -85t-39.5 -85.5t-101.5 -33.5zM835 428q-74 0 -122 39t-48 98q0 58 48 96.5t122 38.5q73 0 121 -38t48 -97t-48 -98t-121 -39zM835 336q128 0 208.5 62t80.5 161q0 68 -44 119.5t-117 67.5v1
q61 19 95.5 65t34.5 105q0 89 -72 145t-186 56t-186 -56t-72 -145q0 -59 34.5 -105t95.5 -65v-1q-73 -16 -117 -67.5t-44 -119.5q0 -99 80.5 -161t208.5 -62zM348 1439h978q101 0 170 -68t69 -168v-986q0 -100 -69 -167.5t-170 -67.5h-978q-101 0 -170 67.5t-69 167.5v986
q0 100 69 168t170 68z" />
    <glyph glyph-name="nine.blacksquare" unicode="&#x39;&#x20de;&#x25a0;" 
d="M545 860q0 -112 72.5 -180.5t178.5 -68.5q146 0 201 116h1q2 -133 -46 -213t-140 -80q-48 0 -84.5 23t-47.5 54h-116q10 -71 76 -122.5t170 -51.5q149 0 226.5 104t77.5 301q0 102 -23 177t-64 117t-91 61.5t-112 19.5q-123 0 -201 -70t-78 -187zM980 860
q0 -71 -46 -112.5t-114 -41.5t-113 42.5t-45 114.5q0 71 45 114t113 43q69 0 114.5 -44t45.5 -116zM348 1439h978q101 0 170 -68t69 -168v-986q0 -100 -69 -167.5t-170 -67.5h-978q-101 0 -170 67.5t-69 167.5v986q0 100 69 168t170 68z" />
    <glyph glyph-name="plus.uc.blacksquare" unicode="&#x2b;&#x20de;&#x25a0;" 
d="M890 674h232v98h-232v231h-106v-231h-232v-98h232v-241h106v241zM348 1439h978q101 0 170 -68t69 -168v-986q0 -100 -69 -167.5t-170 -67.5h-978q-101 0 -170 67.5t-69 167.5v986q0 100 69 168t170 68z" />
    <glyph glyph-name="minus.uc.blacksquare" unicode="&#x2212;&#x20de;&#x25a0;" 
d="M1108 669v101h-542v-101h542zM348 1439h978q101 0 170 -68t69 -168v-986q0 -100 -69 -167.5t-170 -67.5h-978q-101 0 -170 67.5t-69 167.5v986q0 100 69 168t170 68z" />
    <glyph glyph-name="multiply.uc.blacksquare" unicode="&#xd7;&#x20de;&#x25a0;" 
d="M835 787l-174 169l-75 -72l174 -169l-174 -168l75 -72l174 168l174 -168l74 72l-174 168l174 169l-74 72zM348 1439h978q101 0 170 -68t69 -168v-986q0 -100 -69 -167.5t-170 -67.5h-978q-101 0 -170 67.5t-69 167.5v986q0 100 69 168t170 68z" />
    <glyph glyph-name="divide.uc.blacksquare" unicode="&#xf7;&#x20de;&#x25a0;" 
d="M757 934q0 -32 23 -53t56 -21q34 0 58 21t24 53q0 34 -23.5 56t-58.5 22q-33 0 -56 -22.5t-23 -55.5zM1108 673v91h-542v-91h542zM757 506q0 -32 23 -53t57 -21t57.5 21.5t23.5 53.5q0 33 -23.5 54.5t-57.5 21.5t-57 -22t-23 -55zM348 1439h978q101 0 170 -68t69 -168
v-986q0 -100 -69 -167.5t-170 -67.5h-978q-101 0 -170 67.5t-69 167.5v986q0 100 69 168t170 68z" />
    <glyph glyph-name="equal.uc.blacksquare" unicode="&#x3d;&#x20de;&#x25a0;" 
d="M1096 787v95h-518v-95h518zM1096 557v94h-518v-94h518zM348 1439h978q101 0 170 -68t69 -168v-986q0 -100 -69 -167.5t-170 -67.5h-978q-101 0 -170 67.5t-69 167.5v986q0 100 69 168t170 68z" />
    <glyph glyph-name="greater.uc.blacksquare" unicode="&#x3e;&#x20de;&#x25a0;" 
d="M1113 752l-508 288v-119l379 -209v-2l-379 -201v-119l508 277v85zM348 1439h978q101 0 170 -68t69 -168v-986q0 -100 -69 -167.5t-170 -67.5h-978q-101 0 -170 67.5t-69 167.5v986q0 100 69 168t170 68z" />
    <glyph glyph-name="less.uc.blacksquare" unicode="&#x3c;&#x20de;&#x25a0;" 
d="M555 667l508 -277v119q-42 21 -189 100.5t-189 100.5v2l378 209v119l-508 -288v-85zM348 1439h978q101 0 170 -68t69 -168v-986q0 -100 -69 -167.5t-170 -67.5h-978q-101 0 -170 67.5t-69 167.5v986q0 100 69 168t170 68z" />
    <glyph glyph-name="numbersign.blacksquare" unicode="&#x23;&#x20de;&#x25a0;" 
d="M773 809h156l-36 -169h-156zM1143 807l18 89h-122l43 203h-98l-42 -203h-146l43 203h-98l-42 -203h-117l-18 -89h115l-33 -158h-121l-18 -91h119l-44 -210h98l44 210h147l-45 -210h98l44 210h116l19 91h-116l33 158h123zM348 1439h978q101 0 170 -68t69 -168v-986
q0 -100 -69 -167.5t-170 -67.5h-978q-101 0 -170 67.5t-69 167.5v986q0 100 69 168t170 68z" />
    <glyph glyph-name="uni25BC.blacksquare" unicode="&#x25bc;&#x20de;&#x25a0;" 
d="M1156 940h-637l318 -540zM348 1439h978q101 0 170 -68t69 -168v-986q0 -100 -69 -167.5t-170 -67.5h-978q-101 0 -170 67.5t-69 167.5v986q0 100 69 168t170 68z" />
    <glyph glyph-name="uni25B2.blacksquare" unicode="&#x25b2;&#x20de;&#x25a0;" 
d="M1156 499l-319 540l-318 -540h637zM348 1439h978q101 0 170 -68t69 -168v-986q0 -100 -69 -167.5t-170 -67.5h-978q-101 0 -170 67.5t-69 167.5v986q0 100 69 168t170 68z" />
    <glyph glyph-name="uni25C0.blacksquare" unicode="&#x25c0;&#x20de;&#x25a0;" 
d="M1054 404v636l-540 -318zM348 1439h978q101 0 170 -68t69 -168v-986q0 -100 -69 -167.5t-170 -67.5h-978q-101 0 -170 67.5t-69 167.5v986q0 100 69 168t170 68z" />
    <glyph glyph-name="uni25B6.blacksquare" unicode="&#x25b6;&#x20de;&#x25a0;" 
d="M620 404l540 318l-540 318v-636zM348 1439h978q101 0 170 -68t69 -168v-986q0 -100 -69 -167.5t-170 -67.5h-978q-101 0 -170 67.5t-69 167.5v986q0 100 69 168t170 68z" />
    <glyph glyph-name="question.blacksquare" unicode="&#x3f;&#x20de;&#x25a0;" 
d="M733 418q0 -33 25 -55.5t62 -22.5q39 0 64 22.5t25 55.5q0 35 -25 57.5t-64 22.5q-37 0 -62 -22.5t-25 -57.5zM836 1119q-104 0 -175 -55t-71 -161v-3h112q2 55 36 89t93 34q54 0 90 -27t36 -75q0 -36 -21.5 -62t-71.5 -61q-54 -37 -80 -77t-23 -95v-44h110v37
q0 41 18 64.5t71 61.5q58 41 87.5 80.5t29.5 101.5q0 88 -69.5 140t-171.5 52zM348 1439h978q101 0 170 -68t69 -168v-986q0 -100 -69 -167.5t-170 -67.5h-978q-101 0 -170 67.5t-69 167.5v986q0 100 69 168t170 68z" />
    <glyph glyph-name="exclam.blacksquare" unicode="&#x21;&#x20de;&#x25a0;" 
d="M772 1102l12 -499h106l12 499h-130zM749 419q0 -33 25 -55.5t63 -22.5t63 22.5t25 55.5q0 34 -25 56.5t-63 22.5t-63 -22.5t-25 -56.5zM348 1439h978q101 0 170 -68t69 -168v-986q0 -100 -69 -167.5t-170 -67.5h-978q-101 0 -170 67.5t-69 167.5v986q0 100 69 168t170 68
z" />
    <glyph glyph-name="uni2717.blacksquare" unicode="&#x2717;&#x20de;&#x25a0;" 
d="M476 1007l288 -289l-287 -288l75 -75l288 287l288 -287l74 75l-288 288l288 287l-74 75l-288 -288l-289 289zM348 1439h978q101 0 170 -68t69 -168v-986q0 -100 -69 -167.5t-170 -67.5h-978q-101 0 -170 67.5t-69 167.5v986q0 100 69 168t170 68z" />
    <glyph glyph-name="uni2713.blacksquare" unicode="&#x2713;&#x20de;&#x25a0;" 
d="M703 386l588 588l-78 80l-511 -512l-228 230l-79 -78zM348 1439h978q101 0 170 -68t69 -168v-986q0 -100 -69 -167.5t-170 -67.5h-978q-101 0 -170 67.5t-69 167.5v986q0 100 69 168t170 68z" />
    <glyph glyph-name=".notdef" horiz-adv-x="2048" 
d="M100 -494v308h1848v-308h-1848zM100 -67v308h1848v-308h-1848zM100 361v307h1848v-307h-1848zM100 788v307h1848v-307h-1848zM100 1215v308h1848v-308h-1848zM100 1642v308h1848v-308h-1848z" />
    <glyph glyph-name=".null" horiz-adv-x="0" 
 />
    <glyph glyph-name="nonmarkingreturn" horiz-adv-x="0" 
 />
    <glyph glyph-name="space" unicode=" " horiz-adv-x="419" 
 />
    <glyph glyph-name="exclam" unicode="!" horiz-adv-x="531" 
d="M196 1443h138l-8 -987h-121zM265 -9q-39 0 -66 27t-27 66q0 40 27 67t66 27q40 0 67 -27t27 -67q0 -39 -27 -66t-67 -27z" />
    <glyph glyph-name="quotedbl" unicode="&#x22;" horiz-adv-x="703" 
d="M246 955h-123v488h123v-488zM580 955h-123v488h123v-488z" />
    <glyph glyph-name="numbersign" unicode="#" horiz-adv-x="1231" 
d="M637 0l86 419h-360l-86 -419h-111l86 419h-249l22 111h251l78 395h-259l22 110h260l85 410h111l-84 -410h360l85 410h111l-84 -410h267l-22 -110h-268l-81 -395h278l-22 -111h-278l-86 -419h-112zM385 528h362l80 398h-362z" />
    <glyph glyph-name="dollar" unicode="$" horiz-adv-x="1219" 
d="M662 -150h-104v141q-203 13 -331 123t-130 277h130q8 -115 98.5 -191.5t232.5 -89.5v579l-55 15q-189 48 -280 139t-91 232q0 161 116.5 266.5t309.5 119.5v138h104v-137q186 -13 305.5 -119.5t124.5 -262.5h-130q-4 104 -88.5 178t-211.5 85v-544l58 -15
q210 -53 304 -144.5t94 -244.5q0 -172 -123 -280.5t-333 -122.5v-142zM986 385q0 112 -75.5 178t-248.5 105v-560q147 7 235.5 82.5t88.5 194.5zM263 1082q0 -101 71 -163.5t224 -96.5v521q-128 -6 -211.5 -79.5t-83.5 -181.5z" />
    <glyph glyph-name="percent" unicode="%" horiz-adv-x="1458" 
d="M613 1105q0 -162 -76.5 -257.5t-204.5 -95.5q-129 0 -205.5 95.5t-76.5 257.5q0 161 76.5 257t205.5 96q128 0 204.5 -96t76.5 -257zM332 847q73 0 115.5 69t42.5 189q0 119 -42.5 188.5t-115.5 69.5t-116 -69.5t-43 -188.5q0 -120 42.5 -189t116.5 -69zM265 0h-135
l555 752l509 691h134l-544 -739zM1409 340q0 -162 -76.5 -257.5t-205.5 -95.5t-205.5 95.5t-76.5 257.5q0 161 77 257t205 96t205 -96t77 -257zM1127 82q74 0 116.5 69t42.5 189q0 119 -42.5 188t-116.5 69t-116.5 -69t-42.5 -188q0 -120 42.5 -189t116.5 -69z" />
    <glyph glyph-name="ampersand" unicode="&#x26;" horiz-adv-x="1372" 
d="M1184 0l-159 168q-92 -90 -217.5 -140.5t-257.5 -50.5q-208 0 -339.5 111.5t-131.5 287.5q0 242 279 391q9 4 27 13.5t32 17t17 8.5q-109 112 -152.5 189.5t-43.5 157.5q0 133 102.5 222.5t253.5 89.5q152 0 252 -88t100 -224q0 -108 -76 -196.5t-250 -178.5l397 -425
q93 158 93 401v58h127v-59q0 -291 -131 -491l250 -262h-172zM437 684q-117 -67 -170 -139.5t-53 -160.5q0 -128 96.5 -209.5t250.5 -81.5q106 0 211 44.5t171 117.5l-434 468q-40 -18 -72 -39zM545 856q145 72 209 141t64 151q0 90 -63.5 149t-160.5 59q-96 0 -161 -60.5
t-65 -149.5q0 -63 38.5 -126t138.5 -164z" />
    <glyph glyph-name="quotesingle" unicode="'" horiz-adv-x="369" 
d="M246 955h-123v488h123v-488z" />
    <glyph glyph-name="parenleft" unicode="(" horiz-adv-x="626" 
d="M191 569q0 521 277 874h115q-113 -137 -185 -383.5t-72 -490.5t72 -489.5t185 -383.5h-115q-277 353 -277 873z" />
    <glyph glyph-name="parenright" unicode=")" horiz-adv-x="626" 
d="M435 569q0 -519 -277 -873h-115q100 124 178.5 358t78.5 515q0 147 -24 288.5t-63 252t-82 194t-88 139.5h115q277 -354 277 -874z" />
    <glyph glyph-name="asterisk" unicode="*" horiz-adv-x="973" 
d="M781 891l-249 153l7 -293h-102l7 293l-251 -154l-49 93l256 136l-255 135l49 91l250 -151l-7 290h102l-7 -291l249 152l51 -90l-257 -137l257 -135z" />
    <glyph glyph-name="plus" unicode="+" horiz-adv-x="1219" 
d="M671 510v-478h-124v478h-438v124h438v465h124v-465h438v-124h-438z" />
    <glyph glyph-name="comma" unicode="," horiz-adv-x="509" 
d="M213 -276h-111l96 482h141z" />
    <glyph glyph-name="hyphen" unicode="&#x2011;" horiz-adv-x="874" 
d="M765 521h-656v124h656v-124z" />
    <glyph glyph-name="hyphen" unicode="-" horiz-adv-x="874" 
d="M765 521h-656v124h656v-124z" />
    <glyph glyph-name="period" unicode="." horiz-adv-x="509" 
d="M255 -9q-39 0 -66.5 27t-27.5 66q0 40 27.5 67t66.5 27t66 -27t27 -67q0 -39 -27 -66t-66 -27z" />
    <glyph glyph-name="slash" unicode="/" horiz-adv-x="626" 
d="M116 -304h-116l510 1747h116z" />
    <glyph glyph-name="zero" unicode="0" horiz-adv-x="1222" 
d="M611 -23q-245 0 -384 200.5t-139 544.5q0 342 140 543t383 201q244 0 383 -200.5t139 -542.5q0 -344 -139 -545t-383 -201zM611 97q181 0 283 168t102 457q0 287 -102.5 455t-282.5 168q-179 0 -282 -169t-103 -453q0 -290 102 -458t283 -168z" />
    <glyph glyph-name="one" unicode="1" horiz-adv-x="863" 
d="M485 0v1296h-4q-14 -9 -189 -130.5t-198 -135.5v146q18 11 192 132t197 135h134v-1443h-132z" />
    <glyph glyph-name="two" unicode="2" horiz-adv-x="1152" 
d="M115 1039q1 184 132.5 305.5t329.5 121.5q189 0 319 -114t130 -280q0 -118 -65.5 -228.5t-245.5 -297.5l-402 -420v-4h750v-122h-941v96l510 539q155 163 206.5 249t51.5 180q0 118 -92 200t-225 82q-139 0 -231.5 -87.5t-94.5 -219.5v-1h-132v1z" />
    <glyph glyph-name="three" unicode="3" horiz-adv-x="1183" 
d="M399 687v116h168q141 0 230 78t89 199q0 119 -84.5 192.5t-228.5 73.5q-134 0 -222 -74t-99 -194h-132q13 174 138.5 281t320.5 107q191 0 318 -104.5t127 -264.5q0 -135 -81 -227t-220 -117v-4q166 -10 264.5 -105.5t98.5 -248.5q0 -120 -66 -216t-180 -149t-253 -53
q-216 0 -353 111t-144 286h132q8 -122 108.5 -199.5t255.5 -77.5q157 0 259 83t102 211q0 138 -100 217t-274 79h-174z" />
    <glyph glyph-name="four" unicode="4" horiz-adv-x="1214" 
d="M807 0v326h-732v125q222 373 665 994h200v-998h215v-121h-215v-326h-133zM213 451v-4h594v878h-2q-364 -504 -592 -874z" />
    <glyph glyph-name="five" unicode="5" horiz-adv-x="1186" 
d="M605 -23q-130 0 -237.5 51t-172.5 142t-74 206h134q14 -121 113 -199.5t239 -78.5q161 0 264.5 102.5t103.5 261.5q0 158 -102.5 262t-259.5 104q-109 0 -199 -49t-140 -135h-131l82 799h800v-122h-687l-54 -533h4q53 74 145.5 116.5t201.5 42.5q206 0 341.5 -137
t135.5 -345q0 -214 -143 -351t-364 -137z" />
    <glyph glyph-name="six" unicode="6" horiz-adv-x="1206" 
d="M629 -23q-145 0 -259.5 71t-181.5 202q-97 169 -97 441q0 363 145.5 569t402.5 206q180 0 307 -100t158 -266h-138q-27 110 -117 177.5t-211 67.5q-198 0 -306.5 -176.5t-108.5 -497.5h3q44 122 161.5 198t263.5 76q206 0 342.5 -136t136.5 -341q0 -212 -142 -351.5
t-359 -139.5zM628 99q152 0 257.5 106t105.5 259q0 155 -102.5 257.5t-259.5 102.5q-154 0 -260.5 -101.5t-106.5 -248.5q0 -158 105.5 -266.5t260.5 -108.5z" />
    <glyph glyph-name="seven" unicode="7" horiz-adv-x="1105" 
d="M213 0l669 1317v4h-803v122h940v-128l-661 -1315h-145z" />
    <glyph glyph-name="eight" unicode="8" horiz-adv-x="1211" 
d="M605 -23q-226 0 -370 117t-144 298q0 136 89 238t233 133v3q-123 34 -195 120.5t-72 202.5q0 164 130 270.5t329 106.5q200 0 329 -106.5t129 -270.5q0 -114 -72 -201t-194 -122v-3q144 -31 233 -133t89 -238q0 -182 -143.5 -298.5t-370.5 -116.5zM605 97
q166 0 270.5 85.5t104.5 217.5q0 130 -104.5 213t-270.5 83q-165 0 -270 -83t-105 -213q0 -132 104.5 -217.5t270.5 -85.5zM605 818q141 0 231.5 73t90.5 187q0 117 -89.5 193t-232.5 76t-233 -76t-90 -193q0 -114 90.5 -187t232.5 -73z" />
    <glyph glyph-name="nine" unicode="9" horiz-adv-x="1206" 
d="M568 -23q-182 0 -309 100.5t-157 265.5h139q27 -110 116 -178t212 -68q193 0 301 169.5t113 474.5q0 4 -0.5 15.5t-0.5 17.5h-1h-1q-41 -122 -159 -199t-266 -77q-206 0 -342.5 135.5t-136.5 338.5q0 214 142 354t359 140q146 0 260.5 -71t180.5 -202q97 -169 97 -441
q0 -363 -145 -569t-402 -206zM577 619q155 0 261.5 102t106.5 248q0 157 -106 265.5t-261 108.5q-154 0 -259 -106t-105 -261q0 -152 103 -254.5t260 -102.5z" />
    <glyph glyph-name="colon" unicode=":" horiz-adv-x="509" 
d="M255 -9q-39 0 -66.5 27t-27.5 66q0 40 27.5 67t66.5 27t66 -27t27 -67q0 -39 -27 -66t-66 -27zM255 744q-39 0 -66.5 27t-27.5 66t27.5 66.5t66.5 27.5t66 -27.5t27 -66.5t-27 -66t-66 -27z" />
    <glyph glyph-name="semicolon" unicode=";" horiz-adv-x="509" 
d="M255 744q-39 0 -66.5 27t-27.5 66t27.5 66.5t66.5 27.5t66 -27.5t27 -66.5t-27 -66t-66 -27zM213 -276h-111l96 482h141z" />
    <glyph glyph-name="less" unicode="&#x3c;" horiz-adv-x="1219" 
d="M1035 1008l-717 -443v-8l717 -428v-145l-851 518v109l851 543v-146z" />
    <glyph glyph-name="equal" unicode="=" horiz-adv-x="1219" 
d="M1096 323h-973v118h973v-118zM1096 703h-973v118h973v-118z" />
    <glyph glyph-name="greater" unicode="&#x3e;" horiz-adv-x="1219" 
d="M184 1009v146l851 -543v-109l-851 -519v146l717 428v8z" />
    <glyph glyph-name="question" unicode="?" horiz-adv-x="972" 
d="M58 1079q9 165 120 271t299 106q179 0 294.5 -102t115.5 -256q0 -108 -52.5 -190.5t-158.5 -150.5q-98 -63 -133 -115.5t-35 -136.5v-75h-133v94q-1 98 45 168t152 139q95 63 134.5 122t39.5 139q0 107 -77 176t-197 69t-197 -70t-87 -188h-130zM443 -9q-39 0 -66 27
t-27 66q0 40 27 67t66 27q40 0 67 -27t27 -67q0 -39 -27 -66t-67 -27z" />
    <glyph glyph-name="at" unicode="@" horiz-adv-x="1770" 
d="M878 906q-109 0 -174 -85t-65 -227q0 -141 64.5 -225.5t173.5 -84.5q111 0 177 86t66 229q0 141 -65 224t-177 83zM910 1434q231 0 413.5 -93t284.5 -263t102 -388q0 -240 -94 -381t-258 -141q-90 0 -153.5 50.5t-74.5 133.5h-7q-34 -86 -101.5 -131.5t-160.5 -45.5
q-155 0 -250.5 116.5t-95.5 305.5q0 184 96.5 300t249.5 116q87 0 156.5 -44t97.5 -117h7v141h116v-572q0 -70 36 -110.5t103 -40.5q102 0 163 112t61 310q0 286 -195 464.5t-505 178.5q-201 0 -362 -94t-251.5 -262t-90.5 -379q0 -225 94 -392.5t257 -254t373 -86.5
q221 0 332 44v-99q-127 -44 -333 -44q-243 0 -430.5 98.5t-295 289.5t-107.5 448q0 182 61 336.5t169 263t261 169.5t332 61z" />
    <glyph glyph-name="A" unicode="A" horiz-adv-x="1262" 
d="M1094 0l-160 442h-606l-160 -442h-145l540 1443h136l539 -1443h-144zM628 1274l-259 -714h524l-259 714h-6z" />
    <glyph glyph-name="B" unicode="B" horiz-adv-x="1205" 
d="M657 0h-522v1443h519q186 0 301 -98t115 -258q0 -120 -74.5 -212t-189.5 -113v-7q152 -18 245.5 -114.5t93.5 -244.5q0 -185 -130 -290.5t-358 -105.5zM271 1322v-520h314q164 0 255.5 71t91.5 199q0 118 -81.5 184t-225.5 66h-354zM271 121h367q176 0 271.5 73.5
t95.5 208.5t-99.5 208t-285.5 73h-349v-563z" />
    <glyph glyph-name="C" unicode="C" horiz-adv-x="1371" 
d="M720 -23q-295 0 -469 202.5t-174 545.5q0 339 174.5 540t468.5 201q151 0 277.5 -61t207.5 -171t100 -249h-137q-30 156 -155 255t-293 99q-230 0 -366.5 -166.5t-136.5 -447.5q0 -285 136.5 -453t367.5 -168q173 0 294 87t153 236h137q-38 -211 -194 -330.5t-391 -119.5
z" />
    <glyph glyph-name="D" unicode="D" horiz-adv-x="1363" 
d="M135 1443h468q324 0 504 -189.5t180 -531.5q0 -343 -179.5 -532.5t-504.5 -189.5h-468v1443zM272 1319v-1195h323q266 0 409.5 155t143.5 442q0 288 -143.5 443t-409.5 155h-323z" />
    <glyph glyph-name="E" unicode="E" horiz-adv-x="1104" 
d="M1006 124v-124h-871v1443h871v-124h-735v-519h698v-122h-698v-554h735z" />
    <glyph glyph-name="F" unicode="F" horiz-adv-x="1061" 
d="M271 0h-136v1443h856v-124h-720v-542h662v-122h-662v-655z" />
    <glyph glyph-name="G" unicode="G" horiz-adv-x="1409" 
d="M1324 586q0 -286 -159 -447.5t-440 -161.5q-293 0 -470.5 206t-177.5 547q0 335 176.5 535.5t471.5 200.5q227 0 388 -125t202 -332h-142q-44 154 -163.5 242t-284.5 88q-235 0 -371.5 -163.5t-136.5 -445.5q0 -286 138 -456t370 -170q209 0 336 123t127 327v51h-448v120
h584v-139z" />
    <glyph glyph-name="H" unicode="H" horiz-adv-x="1387" 
d="M1252 0h-137v677h-844v-677h-136v1443h136v-642h844v642h137v-1443z" />
    <glyph glyph-name="I" unicode="I" horiz-adv-x="406" 
d="M271 0h-136v1443h136v-1443z" />
    <glyph glyph-name="J" unicode="J" horiz-adv-x="987" 
d="M42 331h135q5 -104 77.5 -169t184.5 -65q132 0 204.5 78t72.5 222v1046h136v-1048q0 -199 -109.5 -312t-303.5 -113q-173 0 -284.5 101t-112.5 260z" />
    <glyph glyph-name="K" unicode="K" horiz-adv-x="1209" 
d="M271 0h-136v1443h136v-748h8l686 748h173l-593 -638l652 -805h-175l-573 708l-178 -193v-515z" />
    <glyph glyph-name="L" unicode="L" horiz-adv-x="1052" 
d="M994 124v-124h-859v1443h136v-1319h723z" />
    <glyph glyph-name="M" unicode="M" horiz-adv-x="1660" 
d="M1525 0h-128v1184h-6l-502 -1177h-119l-501 1177h-6v-1184h-128v1443h157l535 -1263h6l534 1263h158v-1443z" />
    <glyph glyph-name="N" unicode="N" horiz-adv-x="1393" 
d="M270 0h-135v1443h135l846 -1205h7v1205h135v-1443h-132l-849 1206h-7v-1206z" />
    <glyph glyph-name="O" unicode="O" horiz-adv-x="1465" 
d="M732 1466q302 0 479 -201t177 -544t-177 -543.5t-479 -200.5t-478.5 200.5t-176.5 543.5t177 544t478 201zM732 1339q-237 0 -376 -167t-139 -451t139 -450.5t376 -166.5t376.5 167t139.5 450q0 284 -139.5 451t-376.5 167z" />
    <glyph glyph-name="P" unicode="P" horiz-adv-x="1150" 
d="M135 1443h491q207 0 335 -124t128 -325t-129 -325.5t-335 -124.5h-354v-544h-136v1443zM271 1321v-655h323q166 0 260.5 87t94.5 241t-94 240.5t-261 86.5h-323z" />
    <glyph glyph-name="Q" unicode="Q" horiz-adv-x="1465" 
d="M732 -23q-302 0 -478.5 200.5t-176.5 543.5t177 544t478 201q302 0 479 -201t177 -544q0 -213 -71.5 -375.5t-204.5 -256.5l188 -258h-154l-145 198q-122 -52 -269 -52zM732 104q102 0 190 34l-187 257h154l143 -196q104 77 159.5 211.5t55.5 310.5q0 284 -139 451
t-376 167t-376 -167t-139 -451q0 -283 139.5 -450t375.5 -167z" />
    <glyph glyph-name="R" unicode="R" horiz-adv-x="1193" 
d="M271 1321v-609h362q158 0 245 80t87 225q0 143 -89.5 223.5t-247.5 80.5h-357zM271 591v-591h-136v1443h509q211 0 336.5 -114.5t125.5 -307.5q0 -153 -82 -262t-227 -146l350 -613h-160l-332 591h-22h-362z" />
    <glyph glyph-name="S" unicode="S" horiz-adv-x="1182" 
d="M65 392h137q11 -130 123 -210.5t281 -80.5q162 0 266.5 79t104.5 201q0 101 -73 164.5t-234 104.5l-179 46q-201 51 -293.5 140t-92.5 231q0 174 140 286.5t354 112.5q210 0 349.5 -111.5t145.5 -283.5h-137q-10 122 -109 196.5t-253 74.5q-151 0 -249.5 -75.5
t-98.5 -194.5q0 -93 71 -151.5t231 -99.5l156 -40q218 -55 315 -145t97 -240q0 -190 -142 -304.5t-381 -114.5q-226 0 -372 114.5t-157 300.5z" />
    <glyph glyph-name="T" unicode="T" horiz-adv-x="1165" 
d="M651 0h-137v1319h-476v124h1090v-124h-477v-1319z" />
    <glyph glyph-name="U" unicode="U" horiz-adv-x="1386" 
d="M271 1443v-931q0 -184 113 -296t309 -112t309 112t113 296v931h137v-939q0 -236 -151 -381.5t-408 -145.5t-407.5 145.5t-150.5 381.5v939h136z" />
    <glyph glyph-name="V" unicode="V" horiz-adv-x="1262" 
d="M699 0h-136l-540 1443h145l460 -1273h6l461 1273h144z" />
    <glyph glyph-name="W" unicode="W" horiz-adv-x="1854" 
d="M923 1209l-355 -1209h-127l-397 1443h142l318 -1233h6l349 1233h136l348 -1233h7l317 1233h143l-398 -1443h-126l-355 1209h-8z" />
    <glyph glyph-name="X" unicode="X" horiz-adv-x="1263" 
d="M44 0l502 722v5l-498 716h165l421 -613h5l424 613h157l-507 -722v-4l499 -717h-164l-419 610h-5l-425 -610h-155z" />
    <glyph glyph-name="Y" unicode="Y" horiz-adv-x="1219" 
d="M678 0h-137v624l-517 819h156l427 -685h5l427 685h156l-517 -819v-624z" />
    <glyph glyph-name="Z" unicode="Z" horiz-adv-x="1224" 
d="M87 0v99l866 1214v6h-838v124h1011v-100l-864 -1213v-6h876v-124h-1051z" />
    <glyph glyph-name="bracketleft" unicode="[" horiz-adv-x="626" 
d="M204 1443h399v-106h-271v-1536h271v-105h-399v1747z" />
    <glyph glyph-name="backslash" unicode="\" horiz-adv-x="626" 
d="M510 -304l-510 1747h116l510 -1747h-116z" />
    <glyph glyph-name="bracketright" unicode="]" horiz-adv-x="626" 
d="M422 1443v-1747h-399v105h270v1536h-270v106h399z" />
    <glyph glyph-name="asciicircum" unicode="^" horiz-adv-x="847" 
d="M418 1304l-231 -494h-130l296 617h141l296 -617h-130l-231 494h-11z" />
    <glyph glyph-name="underscore" unicode="_" horiz-adv-x="819" 
d="M877 -222h-935v100h935v-100z" />
    <glyph glyph-name="grave" unicode="`" horiz-adv-x="899" 
d="M639 1277h-119l-246 302h146z" />
    <glyph glyph-name="a" unicode="a" horiz-adv-x="1014" 
d="M449 97q137 0 231 85t94 209v115l-308 -21q-123 -8 -189 -59.5t-66 -137.5q0 -85 66 -138t172 -53zM422 -17q-154 0 -249.5 84.5t-95.5 220.5q0 134 96.5 212t276.5 90l324 20v90q0 113 -68 176.5t-189 63.5q-114 0 -185.5 -53t-88.5 -148h-128q11 142 120.5 230
t284.5 88q178 0 282 -93t104 -252v-712h-126v198h-3q-43 -97 -141 -156t-214 -59z" />
    <glyph glyph-name="b" unicode="b" horiz-adv-x="1117" 
d="M614 -17q-123 0 -218.5 63.5t-142.5 173.5h-3v-220h-127v1443h133v-620h3q45 108 140 171t216 63q196 0 317.5 -147.5t121.5 -389.5t-121.5 -389.5t-318.5 -147.5zM589 940q-147 0 -240.5 -117t-93.5 -303q0 -187 93.5 -303.5t240.5 -116.5q150 0 239.5 114.5t89.5 305.5
t-89.5 305.5t-239.5 114.5z" />
    <glyph glyph-name="c" unicode="c" horiz-adv-x="1012" 
d="M960 711h-130q-22 101 -100.5 165t-196.5 64q-153 0 -244.5 -114t-91.5 -306q0 -194 92 -307t245 -113q116 0 194.5 60t101.5 162h131q-22 -150 -139.5 -244.5t-288.5 -94.5q-214 0 -342.5 144.5t-128.5 392.5q0 245 128.5 391t341.5 146q177 0 292.5 -100t135.5 -246z
" />
    <glyph glyph-name="d" unicode="d" horiz-adv-x="1119" 
d="M507 -17q-198 0 -321.5 148t-123.5 389q0 242 122.5 389.5t319.5 147.5q123 0 218.5 -63.5t137.5 -167.5h3v617h133v-1443h-126v220h-3q-45 -107 -141 -172t-219 -65zM530 940q-150 0 -241 -115t-91 -305t91 -305t241 -115q149 0 241.5 116t92.5 304t-92.5 304
t-241.5 116z" />
    <glyph glyph-name="e" unicode="e" horiz-adv-x="1040" 
d="M525 941q-139 0 -228.5 -96.5t-97.5 -251.5h642q-2 155 -89 251.5t-227 96.5zM833 295h131q-24 -137 -141.5 -224.5t-287.5 -87.5q-219 0 -346 143.5t-127 390.5q0 243 127 391.5t338 148.5q206 0 328 -140t122 -373v-56h-779v-8q0 -176 92 -278.5t248 -102.5
q115 0 194 54t101 142z" />
    <glyph glyph-name="f" unicode="f" horiz-adv-x="581" 
d="M167 0v930h-145v110h145v132q0 274 266 274q52 0 96 -8v-109q-37 7 -77 7q-153 0 -153 -167v-129h224v-110h-223v-930h-133z" />
    <glyph glyph-name="g" unicode="g" horiz-adv-x="1107" 
d="M525 107q150 0 242.5 114.5t92.5 301.5t-92.5 302t-242.5 115q-147 0 -237 -114.5t-90 -303.5q0 -188 90 -301.5t237 -113.5zM538 -385q-168 0 -286.5 82t-140.5 207h137q26 -78 105.5 -126.5t190.5 -48.5q145 0 230.5 77.5t85.5 205.5v209h-3q-43 -103 -138.5 -167
t-217.5 -64q-198 0 -318.5 146t-120.5 387q0 242 121 388t321 146q122 0 217.5 -64.5t142.5 -172.5h3v220h126v-1023q0 -182 -123.5 -292t-331.5 -110z" />
    <glyph glyph-name="h" unicode="h" horiz-adv-x="1082" 
d="M123 0v1443h133v-595h3q40 97 130 153t213 56q170 0 271 -105t101 -280v-672h-133v650q0 136 -73 212.5t-204 76.5q-140 0 -224 -90t-84 -237v-612h-133z" />
    <glyph glyph-name="i" unicode="i" horiz-adv-x="378" 
d="M123 0v1040h132v-1040h-132zM189 1250q-36 0 -62 25.5t-26 62.5q0 36 26 61.5t62 25.5q37 0 63 -25.5t26 -61.5q0 -37 -26 -62.5t-63 -25.5z" />
    <glyph glyph-name="j" unicode="j" horiz-adv-x="378" 
d="M255 1040v-1106q0 -150 -73 -219.5t-226 -69.5q-31 0 -32 1v112h27q93 0 132.5 40t39.5 134v1108h132zM189 1250q-36 0 -62 25.5t-26 62.5q0 36 26 61.5t62 25.5q37 0 63 -25.5t26 -61.5q0 -37 -26 -62.5t-63 -25.5z" />
    <glyph glyph-name="k" unicode="k" horiz-adv-x="957" 
d="M256 548l514 492h164l-467 -449l476 -591h-155l-416 510l-116 -107v-403h-133v1443h133v-895z" />
    <glyph glyph-name="l" unicode="l" horiz-adv-x="378" 
d="M123 0v1443h132v-1443h-132z" />
    <glyph glyph-name="m" unicode="m" horiz-adv-x="1621" 
d="M114 0v1040h125v-192h3q35 95 114 152t189 57q112 0 191.5 -59.5t109.5 -159.5h3q38 98 125.5 158.5t202.5 60.5q152 0 244 -94.5t92 -251.5v-711h-132v681q0 121 -64 189.5t-177 68.5q-115 0 -187.5 -79.5t-72.5 -204.5v-655h-133v693q0 111 -65.5 178.5t-172.5 67.5
q-115 0 -189 -84t-74 -216v-639h-132z" />
    <glyph glyph-name="n" unicode="n" horiz-adv-x="1062" 
d="M114 0v1040h125v-192h3q41 97 130.5 153t212.5 56q171 0 269.5 -103t98.5 -280v-674h-132v653q0 136 -71.5 211t-202.5 75q-135 0 -218 -89t-83 -234v-616h-132z" />
    <glyph glyph-name="o" unicode="o" horiz-adv-x="1072" 
d="M536 -17q-214 0 -344 145.5t-130 391.5t130.5 391.5t343.5 145.5q214 0 344 -145.5t130 -391.5t-130 -391.5t-344 -145.5zM536 100q155 0 247.5 112t92.5 308t-92.5 308t-247.5 112t-247 -112t-92 -308t92 -308t247 -112z" />
    <glyph glyph-name="p" unicode="p" horiz-adv-x="1107" 
d="M601 1057q198 0 320.5 -147.5t122.5 -389.5t-121.5 -389.5t-318.5 -147.5q-123 0 -217.5 63.5t-136.5 167.5h-4v-558h-132v1384h125v-220h4q44 106 139 171.5t219 65.5zM578 100q151 0 241 114.5t90 305.5q0 190 -90.5 305t-240.5 115q-148 0 -240 -116.5t-92 -303.5
q0 -188 92 -304t240 -116z" />
    <glyph glyph-name="q" unicode="q" horiz-adv-x="1110" 
d="M505 1057q125 0 220.5 -64.5t140.5 -172.5h4v220h126v-1384h-133v561h-3q-44 -106 -139.5 -170t-217.5 -64q-198 0 -319.5 147.5t-121.5 389.5t122 389.5t321 147.5zM527 100q148 0 242 116.5t94 303.5t-94 303.5t-242 116.5q-149 0 -239 -114.5t-90 -305.5t90 -305.5
t239 -114.5z" />
    <glyph glyph-name="r" unicode="r" horiz-adv-x="615" 
d="M114 0v1040h125v-185h3q29 95 98 148.5t165 53.5q38 0 82 -11v-130q-32 15 -99 15q-110 0 -176 -78t-66 -205v-648h-132z" />
    <glyph glyph-name="s" unicode="s" horiz-adv-x="927" 
d="M93 762q0 129 104.5 212t269.5 83q159 0 263.5 -85.5t114.5 -222.5h-127q-12 93 -79.5 146t-175.5 53q-106 0 -172.5 -50.5t-66.5 -128.5q0 -64 48 -104.5t152 -66.5l154 -37q156 -39 221 -102t65 -175q0 -132 -112 -216.5t-288 -84.5q-167 0 -277.5 85t-123.5 223h132
q14 -93 87.5 -146t189.5 -53q117 0 188 50t71 132q0 68 -43.5 107.5t-147.5 64.5l-169 42q-141 35 -209.5 102.5t-68.5 171.5z" />
    <glyph glyph-name="t" unicode="t" horiz-adv-x="582" 
d="M171 1300h132v-260h205v-110h-205v-668q0 -80 33 -116.5t105 -36.5q56 0 72 4v-113q-28 -6 -98 -6q-131 0 -187.5 60.5t-56.5 201.5v674h-155v110h155v260z" />
    <glyph glyph-name="u" unicode="u" horiz-adv-x="1062" 
d="M948 1040v-1040h-125v193h-3q-42 -97 -132.5 -153.5t-212.5 -56.5q-169 0 -268 102.5t-99 278.5v676h133v-653q0 -138 70.5 -212t201.5 -74q136 0 219.5 88t83.5 234v617h132z" />
    <glyph glyph-name="v" unicode="v" horiz-adv-x="946" 
d="M930 1040l-386 -1040h-141l-387 1040h140l316 -901h3l317 901h138z" />
    <glyph glyph-name="w" unicode="w" horiz-adv-x="1430" 
d="M1410 1040l-295 -1040h-140l-259 863h-3l-258 -863h-140l-296 1040h134l233 -892h3l259 892h134l259 -892h3l233 892h133z" />
    <glyph glyph-name="x" unicode="x" horiz-adv-x="921" 
d="M461 427h-3l-287 -427h-148l365 523l-361 517h150l285 -417h3l284 417h149l-363 -512l360 -528h-149z" />
    <glyph glyph-name="y" unicode="y" horiz-adv-x="950" 
d="M188 -376q-36 0 -66 6v113q24 -6 63 -6q71 0 114.5 40t78.5 138l28 78l-390 1047h142l316 -908h3l317 908h139l-409 -1103q-68 -183 -138 -248t-198 -65z" />
    <glyph glyph-name="z" unicode="z" horiz-adv-x="932" 
d="M80 0v98l619 829v3h-619v110h771v-100l-619 -827v-3h621v-110h-773z" />
    <glyph glyph-name="braceleft" unicode="{" horiz-adv-x="626" 
d="M148 569q112 -11 165.5 -67.5t53.5 -164.5v-297q0 -126 48 -180.5t155 -54.5h33v-109h-44q-164 0 -241 79.5t-77 249.5v259q0 121 -48 169t-170 48v157q122 0 170 48t48 170v240q0 170 76.5 248.5t241.5 78.5h44v-109h-33q-108 0 -155.5 -53t-47.5 -179v-279
q0 -108 -53.5 -164.5t-165.5 -67.5v-22z" />
    <glyph glyph-name="bar" unicode="|" horiz-adv-x="626" 
d="M370 -304h-114v1747h114v-1747z" />
    <glyph glyph-name="braceright" unicode="}" horiz-adv-x="626" 
d="M478 569v22q-113 11 -166 67t-53 165v279q0 126 -47.5 179t-155.5 53h-33v109h44q165 0 241.5 -78.5t76.5 -248.5v-240q0 -122 48 -170t170 -48v-157q-122 0 -170 -47.5t-48 -168.5v-254q0 -173 -77 -254t-241 -81h-44v109h33q106 0 154.5 55t48.5 180v296
q0 109 54 165.5t165 67.5z" />
    <glyph glyph-name="asciitilde" unicode="~" horiz-adv-x="1219" 
d="M570 650q-60 59 -97.5 82t-75.5 23q-67 0 -106.5 -51.5t-44.5 -144.5h-123q0 148 74.5 235t202.5 87q60 0 115 -28.5t126 -96.5q58 -57 98 -80.5t78 -23.5q68 0 110 53t46 147h123q0 -147 -77 -236.5t-204 -89.5q-64 0 -119 28t-126 96z" />
    <glyph glyph-name="nonbreakingspace" unicode="&#xa0;" horiz-adv-x="405" 
 />
    <glyph glyph-name="exclamdown" unicode="&#xa1;" horiz-adv-x="531" 
d="M196 -340l9 986h121l8 -986h-138zM265 927q-39 0 -66 27t-27 67t27 66.5t66 26.5q40 0 67 -26.5t27 -66.5t-27 -67t-67 -27z" />
    <glyph glyph-name="cent" unicode="&#xa2;" horiz-adv-x="1219" 
d="M1107 512q-19 -145 -134.5 -242.5t-280.5 -111.5v-187h-131v189q-203 23 -326.5 173t-123.5 381q0 229 124 377.5t326 171.5v183h131v-182q165 -14 282.5 -115.5t133.5 -244.5h-133q-22 113 -117.5 179t-229.5 66q-167 0 -274.5 -120t-107.5 -315q0 -196 107.5 -318.5
t274.5 -122.5q140 0 232.5 60.5t113.5 178.5h133z" />
    <glyph glyph-name="sterling" unicode="&#xa3;" horiz-adv-x="1219" 
d="M307 118h841v-118h-1064v117q143 34 236 129t93 223q0 81 -37 196h-277v112h236q-22 60 -34.5 98t-23.5 93t-11 103q0 188 130.5 296.5t362.5 108.5q94 0 177 -16t131 -40v-123q-41 24 -125 40.5t-177 16.5q-170 0 -265 -75.5t-95 -204.5q0 -48 11 -104t23.5 -93.5
t34.5 -99.5h470v-112h-431q34 -105 34 -191q0 -67 -21 -125t-56.5 -101t-75.5 -73.5t-87 -52.5v-4z" />
    <glyph glyph-name="currency" unicode="&#xa4;" horiz-adv-x="1219" 
d="M325 656q0 -118 83.5 -202t201.5 -84t202 84t84 202t-84 202t-202 84t-201.5 -84t-83.5 -202zM1088 1052l-167 -168q75 -102 75 -228q0 -128 -76 -229l168 -168l-83 -82l-167 168q-102 -75 -228 -75t-228 75l-169 -168l-82 82l169 169q-75 102 -75 228t75 228l-169 168
l82 82l168 -168q101 76 229 76q127 0 229 -75l166 167z" />
    <glyph glyph-name="yen" unicode="&#xa5;" horiz-adv-x="1219" 
d="M982 310h-304v-310h-136v310h-305v105h305v184h-305v106h259l-472 738h157l426 -675h6l425 675h157l-471 -738h258v-106h-304v-184h304v-105z" />
    <glyph glyph-name="brokenbar" unicode="&#xa6;" horiz-adv-x="626" 
d="M370 743h-114v700h114v-700zM370 -304h-114v697h114v-697z" />
    <glyph glyph-name="section" unicode="&#xa7;" horiz-adv-x="973" 
d="M427 380l81 -18q108 1 179 61t71 149q0 147 -211 193l-81 18q-107 -1 -179 -61.5t-72 -148.5q0 -145 212 -193zM492 -250q-167 0 -278 79.5t-122 207.5h134q12 -79 87 -126.5t185 -47.5q113 0 184.5 51t71.5 131q0 67 -53 110.5t-169 72.5l-129 33q-167 43 -245 112.5
t-78 175.5q0 99 64 169t178 97v12q-230 79 -230 268q0 133 108 216.5t279 83.5q164 0 270 -75.5t123 -203.5h-132q-12 76 -83.5 121.5t-179.5 45.5q-112 0 -182.5 -50.5t-70.5 -130.5q0 -67 52.5 -111t167.5 -73l130 -34q165 -42 242 -110t77 -172t-72.5 -181t-190.5 -99
v-12q254 -60 254 -257q0 -133 -110 -218t-282 -85z" />
    <glyph glyph-name="dieresis" unicode="&#xa8;" horiz-adv-x="898" 
d="M279 1286q-38 0 -65 27t-27 65q0 37 27 64t65 27q37 0 64 -26.5t27 -64.5t-26.5 -65t-64.5 -27zM619 1286q-38 0 -64.5 27t-26.5 65t27 64.5t64 26.5q38 0 65 -27t27 -64q0 -38 -27 -65t-65 -27z" />
    <glyph glyph-name="copyright" unicode="&#xa9;" horiz-adv-x="1717" 
d="M859 -158q-163 0 -308 60.5t-249 164t-165 249.5t-61 310q0 165 61 311t165 249.5t249 163.5t308 60t308 -60t249.5 -163.5t165 -249.5t60.5 -311q0 -164 -60.5 -310t-165 -250t-249.5 -164t-308 -60zM859 -49q140 0 264.5 51.5t214.5 140.5t142 215t52 268
q0 191 -89 346t-243 242t-341 87q-140 0 -264.5 -51.5t-214.5 -140t-142.5 -214.5t-52.5 -269q0 -142 52.5 -268t142.5 -215t214.5 -140.5t264.5 -51.5zM1225 780h-108q-21 77 -86 126t-163 49q-128 0 -206 -87.5t-78 -237.5q0 -153 78 -242t206 -89q99 0 164 45.5t84 123.5
h109q-20 -119 -114.5 -192.5t-242.5 -73.5q-178 0 -286.5 115.5t-108.5 312.5q0 194 108.5 308.5t286.5 114.5q146 0 241.5 -78.5t115.5 -194.5z" />
    <glyph glyph-name="ordfeminine" unicode="&#xaa;" horiz-adv-x="709" 
d="M316 810q89 0 149.5 53t60.5 131v74l-196 -13q-170 -14 -170 -126q0 -53 43 -86t113 -33zM287 719q-107 0 -173.5 57.5t-66.5 150.5q0 94 68.5 147t199.5 61l211 14v58q0 72 -44.5 111.5t-124.5 39.5q-70 0 -115.5 -33.5t-55.5 -92.5h-106q5 97 83 158.5t197 61.5
q127 0 202.5 -64t75.5 -173v-489h-109v132h-2q-28 -63 -94 -101t-146 -38z" />
    <glyph glyph-name="guillemotleft" unicode="&#xab;" horiz-adv-x="1251" 
d="M301 572v-12l357 -411h-157l-358 414v6l358 414h157zM752 572v-12l357 -411h-157l-359 414v6l359 414h157z" />
    <glyph glyph-name="logicalnot" unicode="&#xac;" horiz-adv-x="1219" 
d="M1086 677v-532h-115v418h-838v114h953z" />
    <glyph glyph-name="registered" unicode="&#xae;" horiz-adv-x="1132" 
d="M566 617q-191 0 -324 131t-133 320q0 188 133 319t324 131t324 -130.5t133 -319.5t-133 -320t-324 -131zM566 699q155 0 262 107t107 262t-107 262t-262 107q-154 0 -261.5 -107.5t-107.5 -261.5t107.5 -261.5t261.5 -107.5zM470 854h-76v449h202q68 0 111 -38.5
t43 -98.5q0 -53 -28 -87.5t-79 -44.5l129 -180h-94l-115 170h-93v-170zM470 1237v-152h110q42 0 65 20.5t23 57.5q0 74 -87 74h-111z" />
    <glyph glyph-name="macron" unicode="&#xaf;" horiz-adv-x="938" 
d="M738 1429v-92h-538v92h538z" />
    <glyph glyph-name="degree" unicode="&#xb0;" horiz-adv-x="729" 
d="M364 904q-115 0 -196 81t-81 197q0 115 81 196t196 81t196.5 -81t81.5 -196t-81.5 -196.5t-196.5 -81.5zM364 1005q74 0 126 52t52 125t-52 125t-126 52q-72 0 -124.5 -52.5t-52.5 -124.5t52.5 -124.5t124.5 -52.5z" />
    <glyph glyph-name="plusminus" unicode="&#xb1;" horiz-adv-x="1219" 
d="M1110 112h-1001v114h1001v-114zM666 671v-317h-113v317h-444v105h444v309h113v-309h444v-105h-444z" />
    <glyph glyph-name="two.sups" unicode="&#xb2;" horiz-adv-x="595" 
d="M53 1597q0 94 67.5 153.5t174.5 59.5q105 0 170.5 -54t65.5 -140q0 -53 -28.5 -101t-101.5 -120l-178 -175v-3h322v-98h-486v84l256 249q54 55 75 88.5t21 67.5q0 47 -34 76.5t-87 29.5q-52 0 -87 -33.5t-35 -83.5v-3h-115v3z" />
    <glyph glyph-name="three.sups" unicode="&#xb3;" horiz-adv-x="613" 
d="M216 1423v88h82q54 0 87 28.5t33 75.5q0 44 -33 72t-87 28q-53 0 -87.5 -29.5t-36.5 -76.5h-114q3 91 69.5 146t173.5 55q103 0 168 -50t65 -129q0 -61 -38 -104t-103 -54v-3q77 -6 122.5 -50.5t45.5 -113.5q0 -89 -73 -145t-190 -56q-111 0 -180 56.5t-73 147.5h118
q3 -47 40 -76t96 -29t97 31t38 79q0 50 -37 79.5t-101 29.5h-82z" />
    <glyph glyph-name="acute" unicode="&#xb4;" horiz-adv-x="899" 
d="M378 1277h-119l219 302h146z" />
    <glyph glyph-name="mugreek" unicode="&#x3bc;" horiz-adv-x="1168" 
d="M114 -344v1384h132v-646q0 -140 70 -216t199 -76q139 0 221 88.5t82 234.5v615h132v-800q0 -71 23.5 -102.5t74.5 -31.5q36 0 58 9l2 -112q-34 -12 -84 -12q-86 0 -134 38.5t-62 121.5q-1 3 -2 11.5t-2 19t-1 12.5h-2q-44 -98 -125.5 -154.5t-184.5 -56.5
q-93 0 -164.5 43t-98.5 114h-2v-484h-132z" />
    <glyph glyph-name="mugreek" unicode="&#xb5;" horiz-adv-x="1168" 
d="M114 -344v1384h132v-646q0 -140 70 -216t199 -76q139 0 221 88.5t82 234.5v615h132v-800q0 -71 23.5 -102.5t74.5 -31.5q36 0 58 9l2 -112q-34 -12 -84 -12q-86 0 -134 38.5t-62 121.5q-1 3 -2 11.5t-2 19t-1 12.5h-2q-44 -98 -125.5 -154.5t-184.5 -56.5
q-93 0 -164.5 43t-98.5 114h-2v-484h-132z" />
    <glyph glyph-name="paragraph" unicode="&#xb6;" horiz-adv-x="1186" 
d="M760 -195h-136v770h-20q-205 0 -339.5 122t-134.5 307q0 193 133.5 316t341.5 123h155v-1638zM919 -195v1638h137v-1638h-137z" />
    <glyph glyph-name="periodcentered" unicode="&#xb7;" horiz-adv-x="509" 
d="M255 505q-41 0 -69 28t-28 69q0 40 28 68t69 28t68.5 -28t27.5 -68q0 -41 -27.5 -69t-68.5 -28z" />
    <glyph glyph-name="cedilla" unicode="&#xb8;" horiz-adv-x="899" 
d="M310 -213v57l66 163h98v-7l-58 -133q99 -2 155.5 -43t56.5 -115q0 -80 -64 -126.5t-165 -48.5q-92 -2 -140 15v82q45 -13 123 -13q66 0 104 24t38 65q0 80 -152 80h-62z" />
    <glyph glyph-name="one.sups" unicode="&#xb9;" horiz-adv-x="470" 
d="M245 1119v568h-3l-178 -121v111l177 120h121v-678h-117z" />
    <glyph glyph-name="ordmasculine" unicode="&#xba;" horiz-adv-x="748" 
d="M374 717q-152 0 -242.5 99.5t-90.5 268.5t91 268t242 99q152 0 242.5 -99t90.5 -268t-90.5 -268.5t-242.5 -99.5zM374 812q101 0 159.5 73t58.5 200t-58.5 199.5t-159.5 72.5t-159 -72.5t-58 -199.5t58 -200t159 -73z" />
    <glyph glyph-name="guillemotright" unicode="&#xbb;" horiz-adv-x="1251" 
d="M500 572l-357 411h157l358 -414v-6l-358 -414h-157l357 411v12zM950 572l-357 411h157l359 -414v-6l-359 -414h-157l357 411v12z" />
    <glyph glyph-name="onequarter" unicode="&#xbc;" horiz-adv-x="1433" 
d="M252 765v568h-3l-178 -121v111l177 120h121v-678h-117zM226 0h-136l555 753l510 690h134l-545 -740zM1187 0v130h-339v106q89 158 284 442h174v-449h92v-99h-92v-130h-119zM958 228v-2h232v363h-2q-156 -230 -230 -361z" />
    <glyph glyph-name="onehalf" unicode="&#xbd;" horiz-adv-x="1439" 
d="M252 765v568h-3l-178 -121v111l177 120h121v-678h-117zM226 0h-136l555 753l510 690h134l-545 -740zM910 478q0 94 67.5 153.5t174.5 59.5q105 0 170.5 -54t65.5 -140q0 -53 -28.5 -101t-101.5 -120l-178 -175v-3h322v-98h-486v84l256 249q54 55 75 88.5t21 67.5
q0 47 -34 76.5t-87 29.5q-52 0 -87 -33.5t-35 -83.5v-3h-115v3z" />
    <glyph glyph-name="threequarters" unicode="&#xbe;" horiz-adv-x="1524" 
d="M213 1069v88h82q54 0 87 28.5t33 75.5q0 44 -33 72t-87 28q-53 0 -87.5 -29.5t-36.5 -76.5h-114q3 91 69.5 146t173.5 55q103 0 168 -50t65 -129q0 -61 -38 -104t-103 -54v-3q77 -6 122.5 -50.5t45.5 -113.5q0 -89 -73 -145t-190 -56q-111 0 -180 56.5t-73 147.5h118
q3 -47 40 -76t96 -29t97 31t38 79q0 50 -37 79.5t-101 29.5h-82zM330 0h-136l555 753l510 690h134l-545 -740zM1278 0v130h-339v106q89 158 284 442h174v-449h92v-99h-92v-130h-119zM1049 228v-2h232v363h-2q-156 -230 -230 -361z" />
    <glyph glyph-name="questiondown" unicode="&#xbf;" horiz-adv-x="972" 
d="M914 19q-9 -165 -120.5 -271.5t-298.5 -106.5q-180 0 -295 102t-115 257q0 107 52.5 189.5t157.5 151.5q98 63 133 115t35 136v75h133v-94q1 -98 -44.5 -167.5t-152.5 -139.5q-94 -62 -133.5 -121t-39.5 -138q0 -108 76.5 -177.5t197.5 -69.5q120 0 197 70t87 189h130z
M519 927q-40 0 -67 27t-27 67t27 66.5t67 26.5t66.5 -26.5t26.5 -66.5t-26.5 -67t-66.5 -27z" />
    <glyph glyph-name="Agrave" unicode="&#xc0;" horiz-adv-x="1262" 
d="M1094 0l-160 442h-606l-160 -442h-145l540 1443h136l539 -1443h-144zM628 1274l-259 -714h524l-259 714h-6zM565 1558l-274 288h151l244 -288h-121z" />
    <glyph glyph-name="Aacute" unicode="&#xc1;" horiz-adv-x="1262" 
d="M1094 0l-160 442h-606l-160 -442h-145l540 1443h136l539 -1443h-144zM628 1274l-259 -714h524l-259 714h-6zM697 1558h-121l244 288h151z" />
    <glyph glyph-name="Acircumflex" unicode="&#xc2;" horiz-adv-x="1262" 
d="M1094 0l-160 442h-606l-160 -442h-145l540 1443h136l539 -1443h-144zM628 1274l-259 -714h524l-259 714h-6zM579 1839h104l277 -295h-130l-197 211h-4l-197 -211h-130z" />
    <glyph glyph-name="Atilde" unicode="&#xc3;" horiz-adv-x="1262" 
d="M1094 0l-160 442h-606l-160 -442h-145l540 1443h136l539 -1443h-144zM628 1274l-259 -714h524l-259 714h-6zM764 1572q-37 0 -69.5 16t-56.5 39t-46 46.5t-46 39.5t-48 16q-40 0 -60.5 -38.5t-18.5 -108.5h-94q0 111 46.5 174t127.5 63q38 0 72 -16t57.5 -39.5t45 -46.5
t45 -39t46.5 -16q78 0 78 148h94q0 -109 -47 -173.5t-126 -64.5z" />
    <glyph glyph-name="Adieresis" unicode="&#xc4;" horiz-adv-x="1262" 
d="M1094 0l-160 442h-606l-160 -442h-145l540 1443h136l539 -1443h-144zM628 1274l-259 -714h524l-259 714h-6zM461 1588q-38 0 -65 27t-27 65q0 37 27 64t65 27q37 0 64 -26.5t27 -64.5t-26.5 -65t-64.5 -27zM801 1588q-38 0 -64.5 27t-26.5 65t27 64.5t64 26.5
q38 0 65 -27t27 -64q0 -38 -27 -65t-65 -27z" />
    <glyph glyph-name="Aring" unicode="&#xc5;" horiz-adv-x="1262" 
d="M1094 0l-160 442h-606l-160 -442h-145l540 1443h136l539 -1443h-144zM628 1274l-259 -714h524l-259 714h-6zM631 1513q-75 0 -128.5 53.5t-53.5 128.5t53.5 129t128.5 54t128.5 -54t53.5 -129t-53.5 -128.5t-128.5 -53.5zM631 1584q46 0 78 32.5t32 78.5q0 47 -32 79
t-78 32t-78 -32t-32 -79q0 -46 32 -78.5t78 -32.5z" />
    <glyph glyph-name="AE" unicode="&#xc6;" horiz-adv-x="1941" 
d="M808 1327l-374 -766h544v766h-170zM978 0v443h-600l-214 -443h-141l702 1443h1091v-124h-702v-526h665v-122h-665v-547h702v-124h-838z" />
    <glyph glyph-name="Ccedilla" unicode="&#xc7;" horiz-adv-x="1371" 
d="M1305 985h-137q-30 156 -155 255t-293 99q-230 0 -366.5 -166.5t-136.5 -447.5q0 -285 136.5 -453t367.5 -168q173 0 294 87t153 236h137q-36 -198 -177 -316t-355 -132l-49 -112q99 -2 155.5 -43t56.5 -115q0 -80 -64 -126.5t-165 -48.5q-92 -2 -140 15v82
q45 -13 123 -13q66 0 104 24t38 65q0 80 -152 80h-62v57l54 134q-274 17 -434.5 218t-160.5 529q0 339 174.5 540t468.5 201q151 0 277.5 -61t207.5 -171t100 -249z" />
    <glyph glyph-name="Egrave" unicode="&#xc8;" horiz-adv-x="1104" 
d="M1006 124v-124h-871v1443h871v-124h-735v-519h698v-122h-698v-554h735zM504 1558l-274 288h151l244 -288h-121z" />
    <glyph glyph-name="Eacute" unicode="&#xc9;" horiz-adv-x="1104" 
d="M1006 124v-124h-871v1443h871v-124h-735v-519h698v-122h-698v-554h735zM636 1558h-121l244 288h151z" />
    <glyph glyph-name="Ecircumflex" unicode="&#xca;" horiz-adv-x="1104" 
d="M1006 124v-124h-871v1443h871v-124h-735v-519h698v-122h-698v-554h735zM518 1839h104l277 -295h-130l-197 211h-4l-197 -211h-130z" />
    <glyph glyph-name="Edieresis" unicode="&#xcb;" horiz-adv-x="1104" 
d="M1006 124v-124h-871v1443h871v-124h-735v-519h698v-122h-698v-554h735zM400 1588q-38 0 -65 27t-27 65q0 37 27 64t65 27t64.5 -26.5t26.5 -64.5t-26.5 -65t-64.5 -27zM740 1588q-38 0 -64.5 27t-26.5 65t26.5 64.5t64.5 26.5t65 -27t27 -64q0 -38 -27 -65t-65 -27z" />
    <glyph glyph-name="Igrave" unicode="&#xcc;" horiz-adv-x="406" 
d="M271 0h-136v1443h136v-1443zM137 1558l-274 288h151l244 -288h-121z" />
    <glyph glyph-name="Iacute" unicode="&#xcd;" horiz-adv-x="406" 
d="M271 0h-136v1443h136v-1443zM269 1558h-121l244 288h151z" />
    <glyph glyph-name="Icircumflex" unicode="&#xce;" horiz-adv-x="406" 
d="M271 0h-136v1443h136v-1443zM151 1839h104l277 -295h-130l-197 211h-4l-197 -211h-130z" />
    <glyph glyph-name="Idieresis" unicode="&#xcf;" horiz-adv-x="406" 
d="M271 0h-136v1443h136v-1443zM33 1588q-38 0 -65 27t-27 65q0 37 27 64t65 27q37 0 64 -26.5t27 -64.5t-26.5 -65t-64.5 -27zM373 1588q-38 0 -64.5 27t-26.5 65t27 64.5t64 26.5q38 0 65 -27t27 -64q0 -38 -27 -65t-65 -27z" />
    <glyph glyph-name="Eth" unicode="&#xd0;" horiz-adv-x="1385" 
d="M287 124h323q266 0 409.5 155t143.5 442q0 288 -143.5 443t-409.5 155h-323v-514h312v-124h-312v-557zM150 1443h468q324 0 504 -189.5t180 -531.5q0 -343 -179.5 -532.5t-504.5 -189.5h-468v681h-126v124h126v638z" />
    <glyph glyph-name="Ntilde" unicode="&#xd1;" horiz-adv-x="1393" 
d="M270 0h-135v1443h135l846 -1205h7v1205h135v-1443h-132l-849 1206h-7v-1206zM829 1572q-37 0 -69.5 16t-56.5 39t-46 46.5t-46 39.5t-48 16q-40 0 -60.5 -38.5t-18.5 -108.5h-94q0 111 46.5 174t127.5 63q38 0 72 -16t57.5 -39.5t45 -46.5t45 -39t46.5 -16q78 0 78 148
h94q0 -109 -47 -173.5t-126 -64.5z" />
    <glyph glyph-name="Ograve" unicode="&#xd2;" horiz-adv-x="1465" 
d="M732 1466q302 0 479 -201t177 -544t-177 -543.5t-479 -200.5t-478.5 200.5t-176.5 543.5t177 544t478 201zM732 1339q-237 0 -376 -167t-139 -451t139 -450.5t376 -166.5t376.5 167t139.5 450q0 284 -139.5 451t-376.5 167zM666 1558l-274 288h151l244 -288h-121z" />
    <glyph glyph-name="Oacute" unicode="&#xd3;" horiz-adv-x="1465" 
d="M732 1466q302 0 479 -201t177 -544t-177 -543.5t-479 -200.5t-478.5 200.5t-176.5 543.5t177 544t478 201zM732 1339q-237 0 -376 -167t-139 -451t139 -450.5t376 -166.5t376.5 167t139.5 450q0 284 -139.5 451t-376.5 167zM798 1558h-121l244 288h151z" />
    <glyph glyph-name="Ocircumflex" unicode="&#xd4;" horiz-adv-x="1465" 
d="M732 1466q302 0 479 -201t177 -544t-177 -543.5t-479 -200.5t-478.5 200.5t-176.5 543.5t177 544t478 201zM732 1339q-237 0 -376 -167t-139 -451t139 -450.5t376 -166.5t376.5 167t139.5 450q0 284 -139.5 451t-376.5 167zM680 1839h104l277 -295h-130l-197 211h-4
l-197 -211h-130z" />
    <glyph glyph-name="Otilde" unicode="&#xd5;" horiz-adv-x="1465" 
d="M732 1466q302 0 479 -201t177 -544t-177 -543.5t-479 -200.5t-478.5 200.5t-176.5 543.5t177 544t478 201zM732 1339q-237 0 -376 -167t-139 -451t139 -450.5t376 -166.5t376.5 167t139.5 450q0 284 -139.5 451t-376.5 167zM865 1572q-37 0 -69.5 16t-56.5 39t-46 46.5
t-46 39.5t-48 16q-40 0 -60.5 -38.5t-18.5 -108.5h-94q0 111 46.5 174t127.5 63q38 0 72 -16t57.5 -39.5t45 -46.5t45 -39t46.5 -16q78 0 78 148h94q0 -109 -47 -173.5t-126 -64.5z" />
    <glyph glyph-name="Odieresis" unicode="&#xd6;" horiz-adv-x="1465" 
d="M732 1466q302 0 479 -201t177 -544t-177 -543.5t-479 -200.5t-478.5 200.5t-176.5 543.5t177 544t478 201zM732 1339q-237 0 -376 -167t-139 -451t139 -450.5t376 -166.5t376.5 167t139.5 450q0 284 -139.5 451t-376.5 167zM562 1588q-38 0 -65 27t-27 65q0 37 27 64
t65 27t64.5 -26.5t26.5 -64.5t-26.5 -65t-64.5 -27zM902 1588q-38 0 -64.5 27t-26.5 65t26.5 64.5t64.5 26.5t65 -27t27 -64q0 -38 -27 -65t-65 -27z" />
    <glyph glyph-name="multiply" unicode="&#xd7;" horiz-adv-x="1219" 
d="M610 499l-314 -314l-81 80l314 315l-314 314l81 81l314 -314l313 313l81 -80l-313 -314l313 -314l-81 -81z" />
    <glyph glyph-name="Oslash" unicode="&#xd8;" horiz-adv-x="1465" 
d="M1135 1137l-716 -929q129 -104 313 -104q237 0 376.5 167t139.5 450q0 253 -113 416zM350 278l723 933q-136 128 -341 128q-237 0 -376 -167t-139 -451q0 -278 133 -443zM1363 1432l-140 -182q165 -199 165 -529q0 -343 -177 -543.5t-479 -200.5q-233 0 -396 124
l-126 -164l-79 59l132 171q-186 202 -186 554q0 343 177 544t478 201q255 0 424 -147l130 167z" />
    <glyph glyph-name="Ugrave" unicode="&#xd9;" horiz-adv-x="1386" 
d="M271 1443v-931q0 -184 113 -296t309 -112t309 112t113 296v931h137v-939q0 -236 -151 -381.5t-408 -145.5t-407.5 145.5t-150.5 381.5v939h136zM627 1558l-274 288h151l244 -288h-121z" />
    <glyph glyph-name="Uacute" unicode="&#xda;" horiz-adv-x="1386" 
d="M271 1443v-931q0 -184 113 -296t309 -112t309 112t113 296v931h137v-939q0 -236 -151 -381.5t-408 -145.5t-407.5 145.5t-150.5 381.5v939h136zM759 1558h-121l244 288h151z" />
    <glyph glyph-name="Ucircumflex" unicode="&#xdb;" horiz-adv-x="1386" 
d="M271 1443v-931q0 -184 113 -296t309 -112t309 112t113 296v931h137v-939q0 -236 -151 -381.5t-408 -145.5t-407.5 145.5t-150.5 381.5v939h136zM641 1839h104l277 -295h-130l-197 211h-4l-197 -211h-130z" />
    <glyph glyph-name="Udieresis" unicode="&#xdc;" horiz-adv-x="1386" 
d="M271 1443v-931q0 -184 113 -296t309 -112t309 112t113 296v931h137v-939q0 -236 -151 -381.5t-408 -145.5t-407.5 145.5t-150.5 381.5v939h136zM523 1588q-38 0 -65 27t-27 65q0 37 27 64t65 27q37 0 64 -26.5t27 -64.5t-26.5 -65t-64.5 -27zM863 1588q-38 0 -64.5 27
t-26.5 65t27 64.5t64 26.5q38 0 65 -27t27 -64q0 -38 -27 -65t-65 -27z" />
    <glyph glyph-name="Yacute" unicode="&#xdd;" horiz-adv-x="1219" 
d="M678 0h-137v624l-517 819h156l427 -685h5l427 685h156l-517 -819v-624zM675 1558h-121l244 288h151z" />
    <glyph glyph-name="Thorn" unicode="&#xde;" horiz-adv-x="1222" 
d="M161 1443h137v-274h386q184 0 307.5 -111t123.5 -299q0 -126 -58.5 -220.5t-156 -142.5t-217.5 -48h-385v-348h-137v1443zM298 1046v-576h352q149 0 237 75.5t88 213.5q0 137 -88 212t-237 75h-352z" />
    <glyph glyph-name="germandbls" unicode="&#xdf;" horiz-adv-x="1137" 
d="M285 0h-130v1073q0 173 105.5 276.5t285.5 103.5q172 0 281 -100t109 -255q0 -122 -65 -217t-168 -124v-3q156 -20 248.5 -119.5t92.5 -247.5q0 -178 -121.5 -290.5t-315.5 -112.5q-77 0 -150 14v118q58 -16 141 -16q139 0 227 81t88 208q0 131 -97.5 212t-260.5 81h-75
v128h68q114 0 186 79.5t72 201.5q0 107 -72 176.5t-186 69.5q-123 0 -193 -74.5t-70 -202.5v-1060z" />
    <glyph glyph-name="agrave" unicode="&#xe0;" horiz-adv-x="1014" 
d="M449 97q137 0 231 85t94 209v115l-308 -21q-123 -8 -189 -59.5t-66 -137.5q0 -85 66 -138t172 -53zM422 -17q-154 0 -249.5 84.5t-95.5 220.5q0 134 96.5 212t276.5 90l324 20v90q0 113 -68 176.5t-189 63.5q-114 0 -185.5 -53t-88.5 -148h-128q11 142 120.5 230
t284.5 88q178 0 282 -93t104 -252v-712h-126v198h-3q-43 -97 -141 -156t-214 -59zM571 1199h-119l-246 302h146z" />
    <glyph glyph-name="aacute" unicode="&#xe1;" horiz-adv-x="1014" 
d="M449 97q137 0 231 85t94 209v115l-308 -21q-123 -8 -189 -59.5t-66 -137.5q0 -85 66 -138t172 -53zM422 -17q-154 0 -249.5 84.5t-95.5 220.5q0 134 96.5 212t276.5 90l324 20v90q0 113 -68 176.5t-189 63.5q-114 0 -185.5 -53t-88.5 -148h-128q11 142 120.5 230
t284.5 88q178 0 282 -93t104 -252v-712h-126v198h-3q-43 -97 -141 -156t-214 -59zM566 1199h-119l219 302h146z" />
    <glyph glyph-name="acircumflex" unicode="&#xe2;" horiz-adv-x="1014" 
d="M449 97q137 0 231 85t94 209v115l-308 -21q-123 -8 -189 -59.5t-66 -137.5q0 -85 66 -138t172 -53zM422 -17q-154 0 -249.5 84.5t-95.5 220.5q0 134 96.5 212t276.5 90l324 20v90q0 113 -68 176.5t-189 63.5q-114 0 -185.5 -53t-88.5 -148h-128q11 142 120.5 230
t284.5 88q178 0 282 -93t104 -252v-712h-126v198h-3q-43 -97 -141 -156t-214 -59zM564 1501l269 -302h-127l-192 216h-5l-192 -216h-127l270 302h104z" />
    <glyph glyph-name="atilde" unicode="&#xe3;" horiz-adv-x="1014" 
d="M449 97q137 0 231 85t94 209v115l-308 -21q-123 -8 -189 -59.5t-66 -137.5q0 -85 66 -138t172 -53zM422 -17q-154 0 -249.5 84.5t-95.5 220.5q0 134 96.5 212t276.5 90l324 20v90q0 113 -68 176.5t-189 63.5q-114 0 -185.5 -53t-88.5 -148h-128q11 142 120.5 230
t284.5 88q178 0 282 -93t104 -252v-712h-126v198h-3q-43 -97 -141 -156t-214 -59zM648 1205q-37 0 -69.5 16t-56.5 39.5t-46 46.5t-46 39t-48 16q-40 0 -60.5 -38.5t-18.5 -108.5h-94q0 111 46.5 174t127.5 63q38 0 72 -16t57.5 -39t45 -46.5t45 -39.5t46.5 -16q78 0 78 148
h94q0 -109 -47 -173.5t-126 -64.5z" />
    <glyph glyph-name="adieresis" unicode="&#xe4;" horiz-adv-x="1014" 
d="M449 97q137 0 231 85t94 209v115l-308 -21q-123 -8 -189 -59.5t-66 -137.5q0 -85 66 -138t172 -53zM422 -17q-154 0 -249.5 84.5t-95.5 220.5q0 134 96.5 212t276.5 90l324 20v90q0 113 -68 176.5t-189 63.5q-114 0 -185.5 -53t-88.5 -148h-128q11 142 120.5 230
t284.5 88q178 0 282 -93t104 -252v-712h-126v198h-3q-43 -97 -141 -156t-214 -59zM342 1208q-38 0 -65 27t-27 65q0 37 27 64t65 27t64.5 -26.5t26.5 -64.5t-26.5 -65t-64.5 -27zM682 1208q-38 0 -64.5 27t-26.5 65t26.5 64.5t64.5 26.5t65 -27t27 -64q0 -38 -27 -65
t-65 -27z" />
    <glyph glyph-name="aring" unicode="&#xe5;" horiz-adv-x="1014" 
d="M449 97q137 0 231 85t94 209v115l-308 -21q-123 -8 -189 -59.5t-66 -137.5q0 -85 66 -138t172 -53zM422 -17q-154 0 -249.5 84.5t-95.5 220.5q0 134 96.5 212t276.5 90l324 20v90q0 113 -68 176.5t-189 63.5q-114 0 -185.5 -53t-88.5 -148h-128q11 142 120.5 230
t284.5 88q178 0 282 -93t104 -252v-712h-126v198h-3q-43 -97 -141 -156t-214 -59zM512 1159q-75 0 -128.5 53.5t-53.5 128.5t53.5 128.5t128.5 53.5t128.5 -53.5t53.5 -128.5t-53.5 -128.5t-128.5 -53.5zM512 1230q46 0 78.5 32.5t32.5 78.5t-32.5 78.5t-78.5 32.5
t-78 -32.5t-32 -78.5t32 -78.5t78 -32.5z" />
    <glyph glyph-name="ae" unicode="&#xe6;" horiz-adv-x="1734" 
d="M1240 -17q-136 0 -238 66.5t-152 186.5h-8q-54 -119 -159.5 -186t-243.5 -67q-166 0 -266 83t-100 220q0 132 98 207.5t282 85.5l320 18v94q0 112 -73 180.5t-194 68.5q-112 0 -183.5 -55t-82.5 -147h-129q10 141 116.5 230t274.5 89q138 0 234.5 -62.5t124.5 -172.5h7
q50 111 146 173t227 62q197 0 313.5 -139t116.5 -371v-56h-766v-10q0 -172 92 -277t245 -105q111 0 186 53.5t99 142.5h131q-24 -137 -139 -224.5t-279 -87.5zM1231 941q-139 0 -228 -95.5t-98 -249.5h631q-2 156 -85 250.5t-220 94.5zM444 97q138 0 233.5 86.5t95.5 209.5
v100l-305 -19q-127 -8 -193.5 -55.5t-66.5 -130.5q0 -84 65 -137.5t171 -53.5z" />
    <glyph glyph-name="ccedilla" unicode="&#xe7;" horiz-adv-x="1012" 
d="M830 322h131q-20 -138 -121 -229.5t-252 -106.5l-52 -119q99 -2 155.5 -43t56.5 -115q0 -80 -64 -126.5t-165 -48.5q-92 -2 -140 15v82q45 -13 123 -13q66 0 104 24t38 65q0 80 -152 80h-62v57l57 141q-195 16 -310 158.5t-115 376.5q0 245 128.5 391t341.5 146
q177 0 292.5 -100t135.5 -246h-130q-22 101 -100.5 165t-196.5 64q-153 0 -244.5 -114t-91.5 -306q0 -194 92 -307t245 -113q116 0 194.5 60t101.5 162z" />
    <glyph glyph-name="egrave" unicode="&#xe8;" horiz-adv-x="1040" 
d="M525 941q-139 0 -228.5 -96.5t-97.5 -251.5h642q-2 155 -89 251.5t-227 96.5zM833 295h131q-24 -137 -141.5 -224.5t-287.5 -87.5q-219 0 -346 143.5t-127 390.5q0 243 127 391.5t338 148.5q206 0 328 -140t122 -373v-56h-779v-8q0 -176 92 -278.5t248 -102.5
q115 0 194 54t101 142zM586 1199h-119l-246 302h146z" />
    <glyph glyph-name="eacute" unicode="&#xe9;" horiz-adv-x="1040" 
d="M525 941q-139 0 -228.5 -96.5t-97.5 -251.5h642q-2 155 -89 251.5t-227 96.5zM833 295h131q-24 -137 -141.5 -224.5t-287.5 -87.5q-219 0 -346 143.5t-127 390.5q0 243 127 391.5t338 148.5q206 0 328 -140t122 -373v-56h-779v-8q0 -176 92 -278.5t248 -102.5
q115 0 194 54t101 142zM581 1199h-119l219 302h146z" />
    <glyph glyph-name="ecircumflex" unicode="&#xea;" horiz-adv-x="1040" 
d="M525 941q-139 0 -228.5 -96.5t-97.5 -251.5h642q-2 155 -89 251.5t-227 96.5zM833 295h131q-24 -137 -141.5 -224.5t-287.5 -87.5q-219 0 -346 143.5t-127 390.5q0 243 127 391.5t338 148.5q206 0 328 -140t122 -373v-56h-779v-8q0 -176 92 -278.5t248 -102.5
q115 0 194 54t101 142zM579 1501l269 -302h-127l-192 216h-5l-192 -216h-127l270 302h104z" />
    <glyph glyph-name="edieresis" unicode="&#xeb;" horiz-adv-x="1040" 
d="M525 941q-139 0 -228.5 -96.5t-97.5 -251.5h642q-2 155 -89 251.5t-227 96.5zM833 295h131q-24 -137 -141.5 -224.5t-287.5 -87.5q-219 0 -346 143.5t-127 390.5q0 243 127 391.5t338 148.5q206 0 328 -140t122 -373v-56h-779v-8q0 -176 92 -278.5t248 -102.5
q115 0 194 54t101 142zM357 1208q-38 0 -65 27t-27 65q0 37 27 64t65 27q37 0 64 -26.5t27 -64.5t-26.5 -65t-64.5 -27zM697 1208q-38 0 -64.5 27t-26.5 65t27 64.5t64 26.5q38 0 65 -27t27 -64q0 -38 -27 -65t-65 -27z" />
    <glyph glyph-name="igrave" unicode="&#xec;" horiz-adv-x="378" 
d="M123 0v1040h132v-1040h-132zM248 1199h-119l-246 302h146z" />
    <glyph glyph-name="iacute" unicode="&#xed;" horiz-adv-x="378" 
d="M123 0v1040h132v-1040h-132zM243 1199h-119l219 302h146z" />
    <glyph glyph-name="icircumflex" unicode="&#xee;" horiz-adv-x="378" 
d="M123 0v1040h132v-1040h-132zM241 1501l269 -302h-127l-192 216h-5l-192 -216h-127l270 302h104z" />
    <glyph glyph-name="idieresis" unicode="&#xef;" horiz-adv-x="378" 
d="M123 0v1040h132v-1040h-132zM19 1208q-38 0 -65 27t-27 65q0 37 27 64t65 27q37 0 64 -26.5t27 -64.5t-26.5 -65t-64.5 -27zM359 1208q-38 0 -64.5 27t-26.5 65t27 64.5t64 26.5q38 0 65 -27t27 -64q0 -38 -27 -65t-65 -27z" />
    <glyph glyph-name="eth" unicode="&#xf0;" horiz-adv-x="1090" 
d="M546 -17q-215 0 -343 142t-128 382q0 229 124.5 370t327.5 141q101 0 190 -51.5t129 -133.5h12q-24 101 -76 202t-117 173l-273 -98l-28 87l237 86q-71 75 -208 173h164q92 -63 159 -135l249 90l28 -86l-212 -76q225 -286 225 -702q0 -260 -124 -412t-336 -152zM544 901
q-149 0 -241 -109t-92 -285q0 -184 92 -295.5t243 -111.5t242 110.5t91 292.5q0 181 -91.5 289.5t-243.5 108.5z" />
    <glyph glyph-name="ntilde" unicode="&#xf1;" horiz-adv-x="1062" 
d="M114 0v1040h125v-192h3q41 97 130.5 153t212.5 56q171 0 269.5 -103t98.5 -280v-674h-132v653q0 136 -71.5 211t-202.5 75q-135 0 -218 -89t-83 -234v-616h-132zM670 1205q-37 0 -69.5 16t-56.5 39.5t-46 46.5t-46 39t-48 16q-40 0 -60.5 -38.5t-18.5 -108.5h-94
q0 111 46.5 174t127.5 63q38 0 72 -16t57.5 -39t45 -46.5t45 -39.5t46.5 -16q78 0 78 148h94q0 -109 -47 -173.5t-126 -64.5z" />
    <glyph glyph-name="ograve" unicode="&#xf2;" horiz-adv-x="1072" 
d="M536 -17q-214 0 -344 145.5t-130 391.5t130.5 391.5t343.5 145.5q214 0 344 -145.5t130 -391.5t-130 -391.5t-344 -145.5zM536 100q155 0 247.5 112t92.5 308t-92.5 308t-247.5 112t-247 -112t-92 -308t92 -308t247 -112zM595 1198h-119l-246 302h146z" />
    <glyph glyph-name="oacute" unicode="&#xf3;" horiz-adv-x="1072" 
d="M536 -17q-214 0 -344 145.5t-130 391.5t130.5 391.5t343.5 145.5q214 0 344 -145.5t130 -391.5t-130 -391.5t-344 -145.5zM536 100q155 0 247.5 112t92.5 308t-92.5 308t-247.5 112t-247 -112t-92 -308t92 -308t247 -112zM590 1198h-119l219 302h146z" />
    <glyph glyph-name="ocircumflex" unicode="&#xf4;" horiz-adv-x="1072" 
d="M536 -17q-214 0 -344 145.5t-130 391.5t130.5 391.5t343.5 145.5q214 0 344 -145.5t130 -391.5t-130 -391.5t-344 -145.5zM536 100q155 0 247.5 112t92.5 308t-92.5 308t-247.5 112t-247 -112t-92 -308t92 -308t247 -112zM588 1500l269 -302h-127l-192 216h-5l-192 -216
h-127l270 302h104z" />
    <glyph glyph-name="otilde" unicode="&#xf5;" horiz-adv-x="1072" 
d="M536 -17q-214 0 -344 145.5t-130 391.5t130.5 391.5t343.5 145.5q214 0 344 -145.5t130 -391.5t-130 -391.5t-344 -145.5zM536 100q155 0 247.5 112t92.5 308t-92.5 308t-247.5 112t-247 -112t-92 -308t92 -308t247 -112zM672 1204q-37 0 -69.5 16t-56.5 39t-46 46.5
t-46 39.5t-48 16q-40 0 -60.5 -38.5t-18.5 -108.5h-94q0 111 46.5 174t127.5 63q38 0 72 -16t57.5 -39.5t45 -46.5t45 -39t46.5 -16q78 0 78 148h94q0 -109 -47 -173.5t-126 -64.5z" />
    <glyph glyph-name="odieresis" unicode="&#xf6;" horiz-adv-x="1072" 
d="M536 -17q-214 0 -344 145.5t-130 391.5t130.5 391.5t343.5 145.5q214 0 344 -145.5t130 -391.5t-130 -391.5t-344 -145.5zM536 100q155 0 247.5 112t92.5 308t-92.5 308t-247.5 112t-247 -112t-92 -308t92 -308t247 -112zM366 1207q-38 0 -65 27t-27 65q0 37 27 64t65 27
t64.5 -27t26.5 -64q0 -38 -26.5 -65t-64.5 -27zM706 1207q-38 0 -64.5 27t-26.5 65q0 37 26.5 64t64.5 27t65 -27t27 -64q0 -38 -27 -65t-65 -27z" />
    <glyph glyph-name="divide" unicode="&#xf7;" horiz-adv-x="1219" 
d="M610 815q-46 0 -76.5 30.5t-30.5 76.5t30.5 76t76.5 30q45 0 76 -30.5t31 -75.5q0 -46 -31 -76.5t-76 -30.5zM610 109q-46 0 -76.5 30.5t-30.5 76.5t30.5 76.5t76.5 30.5q45 0 76 -30.5t31 -76.5t-31 -76.5t-76 -30.5zM1110 516h-1001v113h1001v-113z" />
    <glyph glyph-name="oslash" unicode="&#xf8;" horiz-adv-x="1072" 
d="M799 807l-450 -651q79 -56 187 -56q155 0 247.5 112t92.5 308q0 175 -77 287zM281 223l454 652q-82 65 -199 65q-155 0 -247 -112t-92 -308q0 -187 84 -297zM958 1037l-83 -120q135 -146 135 -397q0 -246 -130 -391.5t-344 -145.5q-146 0 -257 71l-76 -110l-79 53l82 117
q-144 147 -144 406q0 246 130.5 391.5t343.5 145.5q156 0 270 -80l76 109z" />
    <glyph glyph-name="ugrave" unicode="&#xf9;" horiz-adv-x="1062" 
d="M948 1040v-1040h-125v193h-3q-42 -97 -132.5 -153.5t-212.5 -56.5q-169 0 -268 102.5t-99 278.5v676h133v-653q0 -138 70.5 -212t201.5 -74q136 0 219.5 88t83.5 234v617h132zM587 1198h-119l-246 302h146z" />
    <glyph glyph-name="uacute" unicode="&#xfa;" horiz-adv-x="1062" 
d="M948 1040v-1040h-125v193h-3q-42 -97 -132.5 -153.5t-212.5 -56.5q-169 0 -268 102.5t-99 278.5v676h133v-653q0 -138 70.5 -212t201.5 -74q136 0 219.5 88t83.5 234v617h132zM582 1198h-119l219 302h146z" />
    <glyph glyph-name="ucircumflex" unicode="&#xfb;" horiz-adv-x="1062" 
d="M948 1040v-1040h-125v193h-3q-42 -97 -132.5 -153.5t-212.5 -56.5q-169 0 -268 102.5t-99 278.5v676h133v-653q0 -138 70.5 -212t201.5 -74q136 0 219.5 88t83.5 234v617h132zM580 1500l269 -302h-127l-192 216h-5l-192 -216h-127l270 302h104z" />
    <glyph glyph-name="udieresis" unicode="&#xfc;" horiz-adv-x="1062" 
d="M948 1040v-1040h-125v193h-3q-42 -97 -132.5 -153.5t-212.5 -56.5q-169 0 -268 102.5t-99 278.5v676h133v-653q0 -138 70.5 -212t201.5 -74q136 0 219.5 88t83.5 234v617h132zM358 1207q-38 0 -65 27t-27 65q0 37 27 64t65 27t64.5 -27t26.5 -64q0 -38 -26.5 -65
t-64.5 -27zM698 1207q-38 0 -64.5 27t-26.5 65q0 37 26.5 64t64.5 27t65 -27t27 -64q0 -38 -27 -65t-65 -27z" />
    <glyph glyph-name="yacute" unicode="&#xfd;" horiz-adv-x="950" 
d="M188 -376q-36 0 -66 6v113q24 -6 63 -6q71 0 114.5 40t78.5 138l28 78l-390 1047h142l316 -908h3l317 908h139l-409 -1103q-68 -183 -138 -248t-198 -65zM529 1198h-119l219 302h146z" />
    <glyph glyph-name="thorn" unicode="&#xfe;" horiz-adv-x="1115" 
d="M615 1057q198 0 317.5 -146.5t119.5 -390.5q0 -242 -120 -389.5t-317 -147.5q-120 0 -213 57t-136 157h-12v-554h-131v1800h126v-615h11q48 106 142.5 167.5t212.5 61.5zM585 100q153 0 242.5 113.5t89.5 306.5q0 192 -89.5 306t-241.5 114q-151 0 -242.5 -114.5
t-91.5 -305.5q0 -190 91.5 -305t241.5 -115z" />
    <glyph glyph-name="ydieresis" unicode="&#xff;" horiz-adv-x="950" 
d="M188 -376q-36 0 -66 6v113q24 -6 63 -6q71 0 114.5 40t78.5 138l28 78l-390 1047h142l316 -908h3l317 908h139l-409 -1103q-68 -183 -138 -248t-198 -65zM305 1207q-38 0 -65 27t-27 65q0 37 27 64t65 27q37 0 64 -27t27 -64q0 -38 -26.5 -65t-64.5 -27zM645 1207
q-38 0 -64.5 27t-26.5 65q0 37 27 64t64 27q38 0 65 -27t27 -64q0 -38 -27 -65t-65 -27z" />
    <glyph glyph-name="Amacron" unicode="&#x100;" horiz-adv-x="1262" 
d="M1094 0l-160 442h-606l-160 -442h-145l540 1443h136l539 -1443h-144zM628 1274l-259 -714h524l-259 714h-6zM936 1720v-92h-610v92h610z" />
    <glyph glyph-name="amacron" unicode="&#x101;" horiz-adv-x="1014" 
d="M449 97q137 0 231 85t94 209v115l-308 -21q-123 -8 -189 -59.5t-66 -137.5q0 -85 66 -138t172 -53zM422 -17q-154 0 -249.5 84.5t-95.5 220.5q0 134 96.5 212t276.5 90l324 20v90q0 113 -68 176.5t-189 63.5q-114 0 -185.5 -53t-88.5 -148h-128q11 142 120.5 230
t284.5 88q178 0 282 -93t104 -252v-712h-126v198h-3q-43 -97 -141 -156t-214 -59zM779 1351v-92h-538v92h538z" />
    <glyph glyph-name="Abreve" unicode="&#x102;" horiz-adv-x="1262" 
d="M1094 0l-160 442h-606l-160 -442h-145l540 1443h136l539 -1443h-144zM628 1274l-259 -714h524l-259 714h-6zM331 1822h100q6 -85 60.5 -136t139.5 -51t139.5 51t60.5 136h100q-7 -118 -88.5 -197t-211.5 -79t-211.5 79t-88.5 197z" />
    <glyph glyph-name="abreve" unicode="&#x103;" horiz-adv-x="1014" 
d="M449 97q137 0 231 85t94 209v115l-308 -21q-123 -8 -189 -59.5t-66 -137.5q0 -85 66 -138t172 -53zM422 -17q-154 0 -249.5 84.5t-95.5 220.5q0 134 96.5 212t276.5 90l324 20v90q0 113 -68 176.5t-189 63.5q-114 0 -185.5 -53t-88.5 -148h-128q11 142 120.5 230
t284.5 88q178 0 282 -93t104 -252v-712h-126v198h-3q-43 -97 -141 -156t-214 -59zM210 1478h99q0 -90 56 -144.5t146 -54.5t146 54.5t56 144.5h99q0 -129 -82.5 -207t-218.5 -78t-218.5 78t-82.5 207z" />
    <glyph glyph-name="Aogonek" unicode="&#x104;" horiz-adv-x="1262" 
d="M628 1274l-259 -714h524l-259 714h-6zM1222 -400q-32 -15 -103 -15q-94 0 -155 51t-61 131q0 147 186 246l-155 429h-606l-160 -442h-145l540 1443h136l538 -1441l-8 -3q-104 -42 -158.5 -95.5t-54.5 -109.5q0 -50 36.5 -79t91.5 -29q42 0 78 9v-95z" />
    <glyph glyph-name="aogonek" unicode="&#x105;" horiz-adv-x="1014" 
d="M449 97q137 0 231 85t94 209v114l-308 -21q-123 -9 -189 -59.5t-66 -136.5q0 -85 66 -138t172 -53zM903 -384q-30 -14 -102 -14q-92 0 -151 48.5t-59 126.5q0 79 53 140.5t136 102.5v178h-3q-44 -97 -141.5 -156.5t-213.5 -59.5q-154 0 -249.5 85t-95.5 221
q0 133 96.5 210.5t276.5 89.5l324 21v89q0 112 -67 174.5t-188 62.5q-112 0 -184 -52.5t-89 -144.5h-127q8 139 120.5 226.5t282.5 87.5q175 0 279.5 -93.5t104.5 -249.5v-710l-8 -3q-87 -35 -140.5 -83.5t-53.5 -107.5q0 -48 34 -76.5t88 -28.5q39 0 77 9v-93z" />
    <glyph glyph-name="Cacute" unicode="&#x106;" horiz-adv-x="1371" 
d="M720 -23q-295 0 -469 202.5t-174 545.5q0 339 174.5 540t468.5 201q151 0 277.5 -61t207.5 -171t100 -249h-137q-30 156 -155 255t-293 99q-230 0 -366.5 -166.5t-136.5 -447.5q0 -285 136.5 -453t367.5 -168q173 0 294 87t153 236h137q-38 -211 -194 -330.5t-391 -119.5
zM786 1559h-121l244 288h151z" />
    <glyph glyph-name="cacute" unicode="&#x107;" horiz-adv-x="1012" 
d="M960 711h-130q-22 101 -100.5 165t-196.5 64q-153 0 -244.5 -114t-91.5 -306q0 -194 92 -307t245 -113q116 0 194.5 60t101.5 162h131q-22 -150 -139.5 -244.5t-288.5 -94.5q-214 0 -342.5 144.5t-128.5 392.5q0 245 128.5 391t341.5 146q177 0 292.5 -100t135.5 -246z
M585 1199h-119l219 302h146z" />
    <glyph glyph-name="Ccircumflex" unicode="&#x108;" horiz-adv-x="1371" 
d="M720 -23q-295 0 -469 202.5t-174 545.5q0 339 174.5 540t468.5 201q151 0 277.5 -61t207.5 -171t100 -249h-137q-30 156 -155 255t-293 99q-230 0 -366.5 -166.5t-136.5 -447.5q0 -285 136.5 -453t367.5 -168q173 0 294 87t153 236h137q-38 -211 -194 -330.5t-391 -119.5
zM668 1840h104l277 -295h-130l-197 211h-4l-197 -211h-130z" />
    <glyph glyph-name="ccircumflex" unicode="&#x109;" horiz-adv-x="1012" 
d="M960 711h-130q-22 101 -100.5 165t-196.5 64q-153 0 -244.5 -114t-91.5 -306q0 -194 92 -307t245 -113q116 0 194.5 60t101.5 162h131q-22 -150 -139.5 -244.5t-288.5 -94.5q-214 0 -342.5 144.5t-128.5 392.5q0 245 128.5 391t341.5 146q177 0 292.5 -100t135.5 -246z
M583 1501l269 -302h-127l-192 216h-5l-192 -216h-127l270 302h104z" />
    <glyph glyph-name="Cdotaccent" unicode="&#x10a;" horiz-adv-x="1371" 
d="M720 -23q-295 0 -469 202.5t-174 545.5q0 339 174.5 540t468.5 201q151 0 277.5 -61t207.5 -171t100 -249h-137q-30 156 -155 255t-293 99q-230 0 -366.5 -166.5t-136.5 -447.5q0 -285 136.5 -453t367.5 -168q173 0 294 87t153 236h137q-38 -211 -194 -330.5t-391 -119.5
zM720 1576q-42 0 -72 30t-30 72t30 72t72 30t72 -30t30 -72t-30 -72t-72 -30z" />
    <glyph glyph-name="cdotaccent" unicode="&#x10b;" horiz-adv-x="1012" 
d="M960 711h-130q-22 101 -100.5 165t-196.5 64q-153 0 -244.5 -114t-91.5 -306q0 -194 92 -307t245 -113q116 0 194.5 60t101.5 162h131q-22 -150 -139.5 -244.5t-288.5 -94.5q-214 0 -342.5 144.5t-128.5 392.5q0 245 128.5 391t341.5 146q177 0 292.5 -100t135.5 -246z
M531 1207q-43 0 -73.5 30.5t-30.5 73.5t30.5 73.5t73.5 30.5t73.5 -30.5t30.5 -73.5t-30.5 -73.5t-73.5 -30.5z" />
    <glyph glyph-name="Ccaron" unicode="&#x10c;" horiz-adv-x="1371" 
d="M720 -23q-295 0 -469 202.5t-174 545.5q0 339 174.5 540t468.5 201q151 0 277.5 -61t207.5 -171t100 -249h-137q-30 156 -155 255t-293 99q-230 0 -366.5 -166.5t-136.5 -447.5q0 -285 136.5 -453t367.5 -168q173 0 294 87t153 236h137q-38 -211 -194 -330.5t-391 -119.5
zM668 1552l-277 295h130l197 -211h4l197 211h130l-277 -295h-104z" />
    <glyph glyph-name="ccaron" unicode="&#x10d;" horiz-adv-x="1012" 
d="M960 711h-130q-22 101 -100.5 165t-196.5 64q-153 0 -244.5 -114t-91.5 -306q0 -194 92 -307t245 -113q116 0 194.5 60t101.5 162h131q-22 -150 -139.5 -244.5t-288.5 -94.5q-214 0 -342.5 144.5t-128.5 392.5q0 245 128.5 391t341.5 146q177 0 292.5 -100t135.5 -246z
M583 1199h-104l-270 302h127l192 -219h5l192 219h127z" />
    <glyph glyph-name="Dcaron" unicode="&#x10e;" horiz-adv-x="1363" 
d="M135 1443h468q324 0 504 -189.5t180 -531.5q0 -343 -179.5 -532.5t-504.5 -189.5h-468v1443zM272 1319v-1195h323q266 0 409.5 155t143.5 442q0 288 -143.5 443t-409.5 155h-323zM499 1551l-277 295h130l197 -211h4l197 211h130l-277 -295h-104z" />
    <glyph glyph-name="dcaron" unicode="&#x10f;" horiz-adv-x="1249" 
d="M1156 1443h108l-23 -429h-85v429zM507 -17q-198 0 -321.5 148t-123.5 389q0 242 122.5 389.5t319.5 147.5q123 0 218.5 -63.5t137.5 -167.5h3v617h133v-1443h-126v220h-3q-45 -107 -141 -172t-219 -65zM530 940q-150 0 -241 -115t-91 -305t91 -305t241 -115
q149 0 241.5 116t92.5 304t-92.5 304t-241.5 116z" />
    <glyph glyph-name="Dcroat" unicode="&#x110;" horiz-adv-x="1378" 
d="M287 124h323q266 0 409.5 155t143.5 442q0 288 -143.5 443t-409.5 155h-323v-514h312v-124h-312v-557zM150 1443h468q324 0 504 -189.5t180 -531.5q0 -343 -179.5 -532.5t-504.5 -189.5h-468v681h-126v124h126v638z" />
    <glyph glyph-name="dcroat" unicode="&#x111;" horiz-adv-x="1138" 
d="M530 106q149 0 241.5 115t92.5 299t-93 299t-241 115q-149 0 -240.5 -114t-91.5 -300t91.5 -300t240.5 -114zM1125 1321v-95h-129v-1226h-126v220h-3q-45 -107 -140.5 -169.5t-219.5 -62.5q-197 0 -321 147.5t-124 384.5t123.5 384.5t318.5 147.5q124 0 218.5 -61.5
t137.5 -164.5h3v400h-252v95h252v122h133v-122h129z" />
    <glyph glyph-name="Emacron" unicode="&#x112;" horiz-adv-x="1104" 
d="M1006 124v-124h-871v1443h871v-124h-735v-519h698v-122h-698v-554h735zM875 1720v-92h-610v92h610z" />
    <glyph glyph-name="emacron" unicode="&#x113;" horiz-adv-x="1040" 
d="M525 941q-139 0 -228.5 -96.5t-97.5 -251.5h642q-2 155 -89 251.5t-227 96.5zM833 295h131q-24 -137 -141.5 -224.5t-287.5 -87.5q-219 0 -346 143.5t-127 390.5q0 243 127 391.5t338 148.5q206 0 328 -140t122 -373v-56h-779v-8q0 -176 92 -278.5t248 -102.5
q115 0 194 54t101 142zM794 1351v-92h-538v92h538z" />
    <glyph glyph-name="Ebreve" unicode="&#x114;" horiz-adv-x="1104" 
d="M1006 124v-124h-871v1443h871v-124h-735v-519h698v-122h-698v-554h735zM270 1822h100q6 -85 60.5 -136t139.5 -51t139.5 51t60.5 136h100q-7 -118 -88.5 -197t-211.5 -79t-211.5 79t-88.5 197z" />
    <glyph glyph-name="ebreve" unicode="&#x115;" horiz-adv-x="1040" 
d="M525 941q-139 0 -228.5 -96.5t-97.5 -251.5h642q-2 155 -89 251.5t-227 96.5zM833 295h131q-24 -137 -141.5 -224.5t-287.5 -87.5q-219 0 -346 143.5t-127 390.5q0 243 127 391.5t338 148.5q206 0 328 -140t122 -373v-56h-779v-8q0 -176 92 -278.5t248 -102.5
q115 0 194 54t101 142zM225 1478h99q0 -90 56 -144.5t146 -54.5t146 54.5t56 144.5h99q0 -129 -82.5 -207t-218.5 -78t-218.5 78t-82.5 207z" />
    <glyph glyph-name="Edotaccent" unicode="&#x116;" horiz-adv-x="1104" 
d="M1006 124v-124h-871v1443h871v-124h-735v-519h698v-122h-698v-554h735zM570 1575q-42 0 -72 30t-30 72t30 72t72 30t72 -30t30 -72t-30 -72t-72 -30z" />
    <glyph glyph-name="edotaccent" unicode="&#x117;" horiz-adv-x="1040" 
d="M525 941q-139 0 -228.5 -96.5t-97.5 -251.5h642q-2 155 -89 251.5t-227 96.5zM833 295h131q-24 -137 -141.5 -224.5t-287.5 -87.5q-219 0 -346 143.5t-127 390.5q0 243 127 391.5t338 148.5q206 0 328 -140t122 -373v-56h-779v-8q0 -176 92 -278.5t248 -102.5
q115 0 194 54t101 142zM527 1207q-43 0 -73.5 30.5t-30.5 73.5t30.5 73.5t73.5 30.5t73.5 -30.5t30.5 -73.5t-30.5 -73.5t-73.5 -30.5z" />
    <glyph glyph-name="Eogonek" unicode="&#x118;" horiz-adv-x="1104" 
d="M135 0v1443h871v-124h-735v-519h698v-122h-698v-554h735v-114l-17 -6q-107 -41 -166.5 -97t-59.5 -113q0 -50 36.5 -79t92.5 -29q41 0 77 9v-95q-30 -15 -103 -15q-94 0 -155 51t-61 131q0 130 156 229v4h-671z" />
    <glyph glyph-name="eogonek" unicode="&#x119;" horiz-adv-x="1040" 
d="M703 -398q-92 0 -151.5 48t-59.5 126q0 119 134 216v4q-37 -13 -91 -13q-219 0 -346 143.5t-127 390.5q0 243 127 391.5t338 148.5q206 0 328 -140t122 -373v-56h-779v-8q0 -176 92 -278.5t248 -102.5q115 0 194 54t101 142h131q-27 -148 -191 -266q-170 -120 -170 -224
q0 -48 35.5 -76.5t89.5 -28.5q40 0 76 9v-93q-30 -14 -101 -14zM525 941q-139 0 -228.5 -96.5t-97.5 -251.5h642q-2 155 -89 251.5t-227 96.5z" />
    <glyph glyph-name="Ecaron" unicode="&#x11a;" horiz-adv-x="1104" 
d="M1006 124v-124h-871v1443h871v-124h-735v-519h698v-122h-698v-554h735zM518 1551l-277 295h130l197 -211h4l197 211h130l-277 -295h-104z" />
    <glyph glyph-name="ecaron" unicode="&#x11b;" horiz-adv-x="1040" 
d="M525 941q-139 0 -228.5 -96.5t-97.5 -251.5h642q-2 155 -89 251.5t-227 96.5zM833 295h131q-24 -137 -141.5 -224.5t-287.5 -87.5q-219 0 -346 143.5t-127 390.5q0 243 127 391.5t338 148.5q206 0 328 -140t122 -373v-56h-779v-8q0 -176 92 -278.5t248 -102.5
q115 0 194 54t101 142zM579 1199h-104l-270 302h127l192 -219h5l192 219h127z" />
    <glyph glyph-name="Gcircumflex" unicode="&#x11c;" horiz-adv-x="1409" 
d="M1324 586q0 -286 -159 -447.5t-440 -161.5q-293 0 -470.5 206t-177.5 547q0 335 176.5 535.5t471.5 200.5q227 0 388 -125t202 -332h-142q-44 154 -163.5 242t-284.5 88q-235 0 -371.5 -163.5t-136.5 -445.5q0 -286 138 -456t370 -170q209 0 336 123t127 327v51h-448v120
h584v-139zM673 1839h104l277 -295h-130l-197 211h-4l-197 -211h-130z" />
    <glyph glyph-name="gcircumflex" unicode="&#x11d;" horiz-adv-x="1107" 
d="M525 107q150 0 242.5 114.5t92.5 301.5t-92.5 302t-242.5 115q-147 0 -237 -114.5t-90 -303.5q0 -188 90 -301.5t237 -113.5zM538 -385q-168 0 -286.5 82t-140.5 207h137q26 -78 105.5 -126.5t190.5 -48.5q145 0 230.5 77.5t85.5 205.5v209h-3q-43 -103 -138.5 -167
t-217.5 -64q-198 0 -318.5 146t-120.5 387q0 242 121 388t321 146q122 0 217.5 -64.5t142.5 -172.5h3v220h126v-1023q0 -182 -123.5 -292t-331.5 -110zM591 1501l269 -302h-127l-192 216h-5l-192 -216h-127l270 302h104z" />
    <glyph glyph-name="Gbreve" unicode="&#x11e;" horiz-adv-x="1409" 
d="M1324 586q0 -286 -159 -447.5t-440 -161.5q-293 0 -470.5 206t-177.5 547q0 335 176.5 535.5t471.5 200.5q227 0 388 -125t202 -332h-142q-44 154 -163.5 242t-284.5 88q-235 0 -371.5 -163.5t-136.5 -445.5q0 -286 138 -456t370 -170q209 0 336 123t127 327v51h-448v120
h584v-139zM425 1822h100q6 -85 60.5 -136t139.5 -51t139.5 51t60.5 136h100q-7 -118 -88.5 -197t-211.5 -79t-211.5 79t-88.5 197z" />
    <glyph glyph-name="gbreve" unicode="&#x11f;" horiz-adv-x="1107" 
d="M525 107q150 0 242.5 114.5t92.5 301.5t-92.5 302t-242.5 115q-147 0 -237 -114.5t-90 -303.5q0 -188 90 -301.5t237 -113.5zM538 -385q-168 0 -286.5 82t-140.5 207h137q26 -78 105.5 -126.5t190.5 -48.5q145 0 230.5 77.5t85.5 205.5v209h-3q-43 -103 -138.5 -167
t-217.5 -64q-198 0 -318.5 146t-120.5 387q0 242 121 388t321 146q122 0 217.5 -64.5t142.5 -172.5h3v220h126v-1023q0 -182 -123.5 -292t-331.5 -110zM237 1478h99q0 -90 56 -144.5t146 -54.5t146 54.5t56 144.5h99q0 -129 -82.5 -207t-218.5 -78t-218.5 78t-82.5 207z" />
    <glyph glyph-name="Gdotaccent" unicode="&#x120;" horiz-adv-x="1409" 
d="M1324 586q0 -286 -159 -447.5t-440 -161.5q-293 0 -470.5 206t-177.5 547q0 335 176.5 535.5t471.5 200.5q227 0 388 -125t202 -332h-142q-44 154 -163.5 242t-284.5 88q-235 0 -371.5 -163.5t-136.5 -445.5q0 -286 138 -456t370 -170q209 0 336 123t127 327v51h-448v120
h584v-139zM725 1575q-42 0 -72 30t-30 72t30 72t72 30t72 -30t30 -72t-30 -72t-72 -30z" />
    <glyph glyph-name="gdotaccent" unicode="&#x121;" horiz-adv-x="1107" 
d="M525 107q150 0 242.5 114.5t92.5 301.5t-92.5 302t-242.5 115q-147 0 -237 -114.5t-90 -303.5q0 -188 90 -301.5t237 -113.5zM538 -385q-168 0 -286.5 82t-140.5 207h137q26 -78 105.5 -126.5t190.5 -48.5q145 0 230.5 77.5t85.5 205.5v209h-3q-43 -103 -138.5 -167
t-217.5 -64q-198 0 -318.5 146t-120.5 387q0 242 121 388t321 146q122 0 217.5 -64.5t142.5 -172.5h3v220h126v-1023q0 -182 -123.5 -292t-331.5 -110zM539 1207q-43 0 -73.5 30.5t-30.5 73.5t30.5 73.5t73.5 30.5t73.5 -30.5t30.5 -73.5t-30.5 -73.5t-73.5 -30.5z" />
    <glyph glyph-name="Gcommaaccent" unicode="&#x122;" horiz-adv-x="1409" 
d="M1324 586q0 -286 -159 -447.5t-440 -161.5q-293 0 -470.5 206t-177.5 547q0 335 176.5 535.5t471.5 200.5q227 0 388 -125t202 -332h-142q-44 154 -163.5 242t-284.5 88q-235 0 -371.5 -163.5t-136.5 -445.5q0 -286 138 -456t370 -170q209 0 336 123t127 327v51h-448v120
h584v-139zM683 -482h-99l106 351h120z" />
    <glyph glyph-name="gcommaaccent" unicode="&#x123;" horiz-adv-x="1107" 
d="M525 107q150 0 242.5 114.5t92.5 301.5t-92.5 302t-242.5 115q-147 0 -237 -114.5t-90 -303.5q0 -188 90 -301.5t237 -113.5zM538 -385q-168 0 -286.5 82t-140.5 207h137q26 -78 105.5 -126.5t190.5 -48.5q145 0 230.5 77.5t85.5 205.5v209h-3q-43 -103 -138.5 -167
t-217.5 -64q-198 0 -318.5 146t-120.5 387q0 242 121 388t321 146q122 0 217.5 -64.5t142.5 -172.5h3v220h126v-1023q0 -182 -123.5 -292t-331.5 -110zM581 1522h99l-106 -351h-120z" />
    <glyph glyph-name="Hcircumflex" unicode="&#x124;" horiz-adv-x="1387" 
d="M1252 0h-137v677h-844v-677h-136v1443h136v-642h844v642h137v-1443zM641 1839h104l277 -295h-130l-197 211h-4l-197 -211h-130z" />
    <glyph glyph-name="hcircumflex" unicode="&#x125;" horiz-adv-x="1082" 
d="M123 0v1443h133v-595h3q40 97 130 153t213 56q170 0 271 -105t101 -280v-672h-133v650q0 136 -73 212.5t-204 76.5q-140 0 -224 -90t-84 -237v-612h-133zM138 1839h104l277 -295h-130l-197 211h-4l-197 -211h-130z" />
    <glyph glyph-name="Hbar" unicode="&#x126;" horiz-adv-x="1401" 
d="M1122 801v294h-844v-294h844zM1390 1206v-111h-131v-1095h-137v677h-844v-677h-136v1095h-131v111h131v237h136v-237h844v237h137v-237h131z" />
    <glyph glyph-name="hbar" unicode="&#x127;" horiz-adv-x="1089" 
d="M263 848h3q40 97 130 153t213 56q170 0 271 -105t101 -280v-672h-133v650q0 136 -73.5 212.5t-204.5 76.5q-139 0 -223 -90t-84 -237v-612h-133v1226h-116v95h116v122h133v-122h263v-95h-263v-378z" />
    <glyph glyph-name="Itilde" unicode="&#x128;" horiz-adv-x="406" 
d="M271 0h-136v1443h136v-1443zM336 1572q-37 0 -69.5 16t-56.5 39t-46 46.5t-46 39.5t-48 16q-40 0 -60.5 -38.5t-18.5 -108.5h-94q0 111 46.5 174t127.5 63q38 0 72 -16t57.5 -39.5t45 -46.5t45 -39t46.5 -16q78 0 78 148h94q0 -109 -47 -173.5t-126 -64.5z" />
    <glyph glyph-name="itilde" unicode="&#x129;" horiz-adv-x="378" 
d="M123 0v1040h132v-1040h-132zM325 1205q-37 0 -69.5 16t-56.5 39.5t-46 46.5t-46 39t-48 16q-40 0 -60.5 -38.5t-18.5 -108.5h-94q0 111 46.5 174t127.5 63q38 0 72 -16t57.5 -39t45 -46.5t45 -39.5t46.5 -16q78 0 78 148h94q0 -109 -47 -173.5t-126 -64.5z" />
    <glyph glyph-name="Imacron" unicode="&#x12a;" horiz-adv-x="406" 
d="M271 0h-136v1443h136v-1443zM508 1720v-92h-610v92h610z" />
    <glyph glyph-name="imacron" unicode="&#x12b;" horiz-adv-x="378" 
d="M123 0v1040h132v-1040h-132zM416 1351v-92h-457v92h457z" />
    <glyph glyph-name="Ibreve" unicode="&#x12c;" horiz-adv-x="406" 
d="M271 0h-136v1443h136v-1443zM-97 1822h100q6 -85 60.5 -136t139.5 -51t139.5 51t60.5 136h100q-7 -118 -88.5 -197t-211.5 -79t-211.5 79t-88.5 197z" />
    <glyph glyph-name="ibreve" unicode="&#x12d;" horiz-adv-x="378" 
d="M123 0v1040h132v-1040h-132zM-113 1478h99q0 -90 56 -144.5t146 -54.5t146 54.5t56 144.5h99q0 -129 -82.5 -207t-218.5 -78t-218.5 78t-82.5 207z" />
    <glyph glyph-name="Iogonek" unicode="&#x12e;" horiz-adv-x="406" 
d="M135 3v1440h136v-1440l-6 -4q-76 -46 -120.5 -99t-44.5 -106q0 -50 36 -79t92 -29q40 0 78 9v-95q-34 -15 -104 -15q-93 0 -154.5 51t-61.5 131q0 135 149 236z" />
    <glyph glyph-name="iogonek" unicode="&#x12f;" horiz-adv-x="378" 
d="M189 1243q-36 0 -62 26t-26 62t26 61.5t62 25.5q37 0 63 -25t26 -62q0 -36 -26 -62t-63 -26zM123 3v1037h132v-1034l-10 -7q-79 -49 -116.5 -94t-37.5 -101q0 -49 35 -76.5t89 -27.5q39 0 77 9v-93q-30 -14 -101 -14q-92 0 -152 48.5t-60 126.5q0 62 37.5 121.5
t106.5 104.5z" />
    <glyph glyph-name="Idotaccent" unicode="&#x130;" horiz-adv-x="406" 
d="M271 0h-136v1443h136v-1443zM203 1575q-42 0 -72 30t-30 72t30 72t72 30t72 -30t30 -72t-30 -72t-72 -30z" />
    <glyph glyph-name="dotlessi" unicode="&#x131;" horiz-adv-x="378" 
d="M123 0v1040h132v-1040h-132z" />
    <glyph glyph-name="IJ" unicode="&#x132;" horiz-adv-x="1393" 
d="M271 0h-136v1443h136v-1443zM448 331h135q5 -104 77.5 -169t184.5 -65q132 0 204.5 78t72.5 222v1046h136v-1048q0 -199 -109.5 -312t-303.5 -113q-173 0 -284.5 101t-112.5 260z" />
    <glyph glyph-name="ij" unicode="&#x133;" horiz-adv-x="779" 
d="M123 0v1040h132v-1040h-132zM189 1250q-36 0 -62 25.5t-26 62.5q0 36 26 61.5t62 25.5q37 0 63 -25.5t26 -61.5q0 -37 -26 -62.5t-63 -25.5zM645 1040v-1106q0 -150 -73 -219.5t-226 -69.5q-31 0 -32 1v112h27q93 0 132.5 40t39.5 134v1108h132zM579 1250q-36 0 -62 25.5
t-26 62.5q0 36 26 61.5t62 25.5q37 0 63 -25.5t26 -61.5q0 -37 -26 -62.5t-63 -25.5z" />
    <glyph glyph-name="Jcircumflex" unicode="&#x134;" horiz-adv-x="987" 
d="M42 331h135q5 -104 77.5 -169t184.5 -65q132 0 204.5 78t72.5 222v1046h136v-1048q0 -199 -109.5 -312t-303.5 -113q-173 0 -284.5 101t-112.5 260zM732 1839h104l277 -295h-130l-197 211h-4l-197 -211h-130z" />
    <glyph glyph-name="jcircumflex" unicode="&#x135;" horiz-adv-x="378" 
d="M255 1040v-1106q0 -149 -72.5 -219t-226.5 -70q-31 0 -32 1v112h27q93 0 132.5 40t39.5 134v1108h132zM241 1501l269 -302h-127l-192 216h-5l-192 -216h-127l270 302h104z" />
    <glyph glyph-name="Kcommaaccent" unicode="&#x136;" horiz-adv-x="1209" 
d="M271 0h-136v1443h136v-748h8l686 748h173l-593 -638l652 -805h-175l-573 708l-178 -193v-515zM539 -482h-99l106 351h120z" />
    <glyph glyph-name="kcommaaccent" unicode="&#x137;" horiz-adv-x="957" 
d="M256 548l514 492h164l-467 -449l476 -591h-155l-416 510l-116 -107v-403h-133v1443h133v-895zM467 -482h-99l106 351h120z" />
    <glyph glyph-name="Lacute" unicode="&#x139;" horiz-adv-x="1052" 
d="M994 124v-124h-859v1443h136v-1319h723zM269 1558h-121l244 288h151z" />
    <glyph glyph-name="lacute" unicode="&#x13a;" horiz-adv-x="378" 
d="M123 0v1443h132v-1443h-132zM255 1558h-121l244 288h151z" />
    <glyph glyph-name="Lcommaaccent" unicode="&#x13b;" horiz-adv-x="1052" 
d="M994 124v-124h-859v1443h136v-1319h723zM522 -482h-99l106 351h120z" />
    <glyph glyph-name="lcommaaccent" unicode="&#x13c;" horiz-adv-x="378" 
d="M123 0v1443h132v-1443h-132zM147 -482h-99l106 351h120z" />
    <glyph glyph-name="Lcaron" unicode="&#x13d;" horiz-adv-x="1052" 
d="M588 1443h129l-36 -473h-93v473zM994 124v-124h-859v1443h136v-1319h723z" />
    <glyph glyph-name="lcaron" unicode="&#x13e;" horiz-adv-x="499" 
d="M407 1449h108l-23 -429h-85v429zM123 0v1443h132v-1443h-132z" />
    <glyph glyph-name="Lslash" unicode="&#x141;" horiz-adv-x="1061" 
d="M280 124h723v-124h-859v705l-124 -60v111l124 60v627h136v-560l360 175v-111l-360 -175v-648z" />
    <glyph glyph-name="lslash" unicode="&#x142;" horiz-adv-x="396" 
d="M383 931v-110l-119 -62v-759h-132v691l-118 -61v111l118 61v641h132v-573z" />
    <glyph glyph-name="Nacute" unicode="&#x143;" horiz-adv-x="1393" 
d="M270 0h-135v1443h135l846 -1205h7v1205h135v-1443h-132l-849 1206h-7v-1206zM762 1558h-121l244 288h151z" />
    <glyph glyph-name="nacute" unicode="&#x144;" horiz-adv-x="1062" 
d="M114 0v1040h125v-192h3q41 97 130.5 153t212.5 56q171 0 269.5 -103t98.5 -280v-674h-132v653q0 136 -71.5 211t-202.5 75q-135 0 -218 -89t-83 -234v-616h-132zM589 1199h-119l219 302h146z" />
    <glyph glyph-name="Ncommaaccent" unicode="&#x145;" horiz-adv-x="1393" 
d="M270 0h-135v1443h135l846 -1205h7v1205h135v-1443h-132l-849 1206h-7v-1206zM654 -482h-99l106 351h120z" />
    <glyph glyph-name="ncommaaccent" unicode="&#x146;" horiz-adv-x="1062" 
d="M114 0v1040h125v-192h3q41 97 130.5 153t212.5 56q171 0 269.5 -103t98.5 -280v-674h-132v653q0 136 -71.5 211t-202.5 75q-135 0 -218 -89t-83 -234v-616h-132zM493 -482h-99l106 351h120z" />
    <glyph glyph-name="Ncaron" unicode="&#x147;" horiz-adv-x="1393" 
d="M270 0h-135v1443h135l846 -1205h7v1205h135v-1443h-132l-849 1206h-7v-1206zM644 1551l-277 295h130l197 -211h4l197 211h130l-277 -295h-104z" />
    <glyph glyph-name="ncaron" unicode="&#x148;" horiz-adv-x="1062" 
d="M114 0v1040h125v-192h3q41 97 130.5 153t212.5 56q171 0 269.5 -103t98.5 -280v-674h-132v653q0 136 -71.5 211t-202.5 75q-135 0 -218 -89t-83 -234v-616h-132zM587 1199h-104l-270 302h127l192 -219h5l192 219h127z" />
    <glyph glyph-name="Omacron" unicode="&#x14c;" horiz-adv-x="1465" 
d="M732 1466q302 0 479 -201t177 -544t-177 -543.5t-479 -200.5t-478.5 200.5t-176.5 543.5t177 544t478 201zM732 1339q-237 0 -376 -167t-139 -451t139 -450.5t376 -166.5t376.5 167t139.5 450q0 284 -139.5 451t-376.5 167zM1037 1720v-92h-610v92h610z" />
    <glyph glyph-name="omacron" unicode="&#x14d;" horiz-adv-x="1072" 
d="M536 -17q-214 0 -344 145.5t-130 391.5t130.5 391.5t343.5 145.5q214 0 344 -145.5t130 -391.5t-130 -391.5t-344 -145.5zM536 100q155 0 247.5 112t92.5 308t-92.5 308t-247.5 112t-247 -112t-92 -308t92 -308t247 -112zM803 1350v-92h-538v92h538z" />
    <glyph glyph-name="Obreve" unicode="&#x14e;" horiz-adv-x="1465" 
d="M732 1466q302 0 479 -201t177 -544t-177 -543.5t-479 -200.5t-478.5 200.5t-176.5 543.5t177 544t478 201zM732 1339q-237 0 -376 -167t-139 -451t139 -450.5t376 -166.5t376.5 167t139.5 450q0 284 -139.5 451t-376.5 167zM432 1822h100q6 -85 60.5 -136t139.5 -51
t139.5 51t60.5 136h100q-7 -118 -88.5 -197t-211.5 -79t-211.5 79t-88.5 197z" />
    <glyph glyph-name="obreve" unicode="&#x14f;" horiz-adv-x="1072" 
d="M536 -17q-214 0 -344 145.5t-130 391.5t130.5 391.5t343.5 145.5q214 0 344 -145.5t130 -391.5t-130 -391.5t-344 -145.5zM536 100q155 0 247.5 112t92.5 308t-92.5 308t-247.5 112t-247 -112t-92 -308t92 -308t247 -112zM234 1477h99q0 -90 56 -144.5t146 -54.5
t146 54.5t56 144.5h99q0 -129 -82.5 -207t-218.5 -78t-218.5 78t-82.5 207z" />
    <glyph glyph-name="Ohungarumlaut" unicode="&#x150;" horiz-adv-x="1465" 
d="M732 1466q302 0 479 -201t177 -544t-177 -543.5t-479 -200.5t-478.5 200.5t-176.5 543.5t177 544t478 201zM732 1339q-237 0 -376 -167t-139 -451t139 -450.5t376 -166.5t376.5 167t139.5 450q0 284 -139.5 451t-376.5 167zM954 1558h-122l245 288h151zM656 1558h-122
l244 288h151z" />
    <glyph glyph-name="ohungarumlaut" unicode="&#x151;" horiz-adv-x="1072" 
d="M536 -17q-214 0 -344 145.5t-130 391.5t130.5 391.5t343.5 145.5q214 0 344 -145.5t130 -391.5t-130 -391.5t-344 -145.5zM536 100q155 0 247.5 112t92.5 308t-92.5 308t-247.5 112t-247 -112t-92 -308t92 -308t247 -112zM624 1198l209 302h143l-242 -302h-110zM339 1198
l209 302h143l-242 -302h-110z" />
    <glyph glyph-name="OE" unicode="&#x152;" horiz-adv-x="2200" 
d="M739 1339q-240 0 -381 -167t-141 -451q0 -283 141 -450t381 -167q239 0 380 167t141 450t-141 450.5t-380 167.5zM1262 0v290q-71 -149 -208 -231t-315 -82q-305 0 -483.5 200.5t-178.5 543.5q0 344 178.5 544.5t483.5 200.5q180 0 316 -80.5t207 -229.5v287h849v-124
h-712v-519h674v-122h-674v-554h712v-124h-849z" />
    <glyph glyph-name="oe" unicode="&#x153;" horiz-adv-x="1852" 
d="M1349 -17q-140 0 -250 72.5t-154 188.5h-7q-52 -124 -155.5 -193t-246.5 -69q-216 0 -345 145.5t-129 391.5t129 391.5t345 145.5q143 0 246 -70t156 -197h7q44 120 149.5 194t245.5 74q206 0 328 -140t122 -372v-57h-778v-9q0 -170 93 -275t246 -105q114 0 193 54.5
t103 141.5h131q-24 -135 -143 -223.5t-286 -88.5zM1653 593q-2 155 -89 251.5t-226 96.5q-137 0 -227 -96.5t-99 -251.5h641zM197 519q0 -195 91 -307.5t248 -112.5t248 112.5t91 307.5t-91 307.5t-248 112.5t-248 -112.5t-91 -307.5z" />
    <glyph glyph-name="Racute" unicode="&#x154;" horiz-adv-x="1193" 
d="M271 1321v-609h362q158 0 245 80t87 225q0 143 -89.5 223.5t-247.5 80.5h-357zM271 591v-591h-136v1443h509q211 0 336.5 -114.5t125.5 -307.5q0 -153 -82 -262t-227 -146l350 -613h-160l-332 591h-22h-362zM584 1558h-121l244 288h151z" />
    <glyph glyph-name="racute" unicode="&#x155;" horiz-adv-x="615" 
d="M114 0v1040h125v-185h3q29 95 98 148.5t165 53.5q38 0 82 -11v-130q-32 15 -99 15q-110 0 -176 -78t-66 -205v-648h-132zM398 1199h-119l219 302h146z" />
    <glyph glyph-name="Rcommaaccent" unicode="&#x156;" horiz-adv-x="1193" 
d="M271 1321v-609h362q158 0 245 80t87 225q0 143 -89.5 223.5t-247.5 80.5h-357zM271 591v-591h-136v1443h509q211 0 336.5 -114.5t125.5 -307.5q0 -153 -82 -262t-227 -146l350 -613h-160l-332 591h-22h-362zM476 -482h-99l106 351h120z" />
    <glyph glyph-name="rcommaaccent" unicode="&#x157;" horiz-adv-x="615" 
d="M114 0v1040h125v-185h3q29 95 98 148.5t165 53.5q38 0 82 -11v-130q-32 15 -99 15q-110 0 -176 -78t-66 -205v-648h-132zM138 -482h-99l106 351h120z" />
    <glyph glyph-name="Rcaron" unicode="&#x158;" horiz-adv-x="1193" 
d="M271 1321v-609h362q158 0 245 80t87 225q0 143 -89.5 223.5t-247.5 80.5h-357zM271 591v-591h-136v1443h509q211 0 336.5 -114.5t125.5 -307.5q0 -153 -82 -262t-227 -146l350 -613h-160l-332 591h-22h-362zM466 1551l-277 295h130l197 -211h4l197 211h130l-277 -295
h-104z" />
    <glyph glyph-name="rcaron" unicode="&#x159;" horiz-adv-x="615" 
d="M114 0v1040h125v-185h3q29 95 98 148.5t165 53.5q38 0 82 -11v-130q-32 15 -99 15q-110 0 -176 -78t-66 -205v-648h-132zM396 1199h-104l-270 302h127l192 -219h5l192 219h127z" />
    <glyph glyph-name="Sacute" unicode="&#x15a;" horiz-adv-x="1182" 
d="M65 392h137q11 -130 123 -210.5t281 -80.5q162 0 266.5 79t104.5 201q0 101 -73 164.5t-234 104.5l-179 46q-201 51 -293.5 140t-92.5 231q0 174 140 286.5t354 112.5q210 0 349.5 -111.5t145.5 -283.5h-137q-10 122 -109 196.5t-253 74.5q-151 0 -249.5 -75.5
t-98.5 -194.5q0 -93 71 -151.5t231 -99.5l156 -40q218 -55 315 -145t97 -240q0 -190 -142 -304.5t-381 -114.5q-226 0 -372 114.5t-157 300.5zM665 1558h-121l244 288h151z" />
    <glyph glyph-name="sacute" unicode="&#x15b;" horiz-adv-x="927" 
d="M93 762q0 129 104.5 212t269.5 83q159 0 263.5 -85.5t114.5 -222.5h-127q-12 93 -79.5 146t-175.5 53q-106 0 -172.5 -50.5t-66.5 -128.5q0 -64 48 -104.5t152 -66.5l154 -37q156 -39 221 -102t65 -175q0 -132 -112 -216.5t-288 -84.5q-167 0 -277.5 85t-123.5 223h132
q14 -93 87.5 -146t189.5 -53q117 0 188 50t71 132q0 68 -43.5 107.5t-147.5 64.5l-169 42q-141 35 -209.5 102.5t-68.5 171.5zM522 1199h-119l219 302h146z" />
    <glyph glyph-name="Scircumflex" unicode="&#x15c;" horiz-adv-x="1182" 
d="M65 392h137q11 -130 123 -210.5t281 -80.5q162 0 266.5 79t104.5 201q0 101 -73 164.5t-234 104.5l-179 46q-201 51 -293.5 140t-92.5 231q0 174 140 286.5t354 112.5q210 0 349.5 -111.5t145.5 -283.5h-137q-10 122 -109 196.5t-253 74.5q-151 0 -249.5 -75.5
t-98.5 -194.5q0 -93 71 -151.5t231 -99.5l156 -40q218 -55 315 -145t97 -240q0 -190 -142 -304.5t-381 -114.5q-226 0 -372 114.5t-157 300.5zM547 1839h104l277 -295h-130l-197 211h-4l-197 -211h-130z" />
    <glyph glyph-name="scircumflex" unicode="&#x15d;" horiz-adv-x="927" 
d="M93 762q0 129 104.5 212t269.5 83q159 0 263.5 -85.5t114.5 -222.5h-127q-12 93 -79.5 146t-175.5 53q-106 0 -172.5 -50.5t-66.5 -128.5q0 -64 48 -104.5t152 -66.5l154 -37q156 -39 221 -102t65 -175q0 -132 -112 -216.5t-288 -84.5q-167 0 -277.5 85t-123.5 223h132
q14 -93 87.5 -146t189.5 -53q117 0 188 50t71 132q0 68 -43.5 107.5t-147.5 64.5l-169 42q-141 35 -209.5 102.5t-68.5 171.5zM520 1501l269 -302h-127l-192 216h-5l-192 -216h-127l270 302h104z" />
    <glyph glyph-name="Scedilla" unicode="&#x15e;" horiz-adv-x="1182" 
d="M549 821l156 -40q218 -55 315 -145t97 -240q0 -179 -127 -291.5t-343 -125.5l-49 -112q99 -2 155.5 -43t56.5 -115q0 -80 -64 -126.5t-165 -48.5q-92 -2 -140 15v82q45 -13 123 -13q66 0 104 24t38 65q0 80 -152 80h-62v57l54 134q-208 13 -339.5 125.5t-141.5 288.5h137
q11 -130 123 -210.5t281 -80.5q162 0 266.5 79t104.5 201q0 101 -73 164.5t-234 104.5l-179 46q-201 51 -293.5 140t-92.5 231q0 174 140 286.5t354 112.5q210 0 349.5 -111.5t145.5 -283.5h-137q-10 122 -109 196.5t-253 74.5q-151 0 -249.5 -75.5t-98.5 -194.5
q0 -93 71 -151.5t231 -99.5z" />
    <glyph glyph-name="scedilla" unicode="&#x15f;" horiz-adv-x="927" 
d="M424 598l154 -37q156 -39 221 -102t65 -175q0 -121 -95.5 -203t-249.5 -96l-52 -118q99 -2 155.5 -43t56.5 -115q0 -80 -64 -126.5t-165 -48.5q-92 -2 -140 15v82q45 -13 123 -13q66 0 104 24t38 65q0 80 -152 80h-62v57l57 141q-149 12 -246 95.5t-109 210.5h132
q14 -93 87.5 -146t189.5 -53q117 0 188 50t71 132q0 68 -43.5 107.5t-147.5 64.5l-169 42q-141 35 -209.5 102.5t-68.5 171.5q0 129 104.5 212t269.5 83q159 0 263.5 -85.5t114.5 -222.5h-127q-12 93 -79.5 146t-175.5 53q-106 0 -172.5 -50.5t-66.5 -128.5q0 -64 48 -104.5
t152 -66.5z" />
    <glyph glyph-name="Scaron" unicode="&#x160;" horiz-adv-x="1182" 
d="M65 392h137q11 -130 123 -210.5t281 -80.5q162 0 266.5 79t104.5 201q0 101 -73 164.5t-234 104.5l-179 46q-201 51 -293.5 140t-92.5 231q0 174 140 286.5t354 112.5q210 0 349.5 -111.5t145.5 -283.5h-137q-10 122 -109 196.5t-253 74.5q-151 0 -249.5 -75.5
t-98.5 -194.5q0 -93 71 -151.5t231 -99.5l156 -40q218 -55 315 -145t97 -240q0 -190 -142 -304.5t-381 -114.5q-226 0 -372 114.5t-157 300.5zM547 1551l-277 295h130l197 -211h4l197 211h130l-277 -295h-104z" />
    <glyph glyph-name="scaron" unicode="&#x161;" horiz-adv-x="927" 
d="M93 762q0 129 104.5 212t269.5 83q159 0 263.5 -85.5t114.5 -222.5h-127q-12 93 -79.5 146t-175.5 53q-106 0 -172.5 -50.5t-66.5 -128.5q0 -64 48 -104.5t152 -66.5l154 -37q156 -39 221 -102t65 -175q0 -132 -112 -216.5t-288 -84.5q-167 0 -277.5 85t-123.5 223h132
q14 -93 87.5 -146t189.5 -53q117 0 188 50t71 132q0 68 -43.5 107.5t-147.5 64.5l-169 42q-141 35 -209.5 102.5t-68.5 171.5zM520 1199h-104l-270 302h127l192 -219h5l192 219h127z" />
    <glyph glyph-name="Tcedilla" unicode="&#x162;" horiz-adv-x="1165" 
d="M1128 1319h-477v-1312h1v-7l-58 -133q99 -2 155.5 -43t56.5 -115q0 -80 -64 -126.5t-165 -48.5q-92 -2 -140 15v82q45 -13 123 -13q66 0 104 24t38 65q0 80 -152 80h-62v57l63 156h-37v1319h-476v124h1090v-124z" />
    <glyph glyph-name="tcedilla" unicode="&#x163;" horiz-adv-x="582" 
d="M410 -6l-55 -127q99 -2 155.5 -43t56.5 -115q0 -80 -64 -126.5t-165 -48.5q-92 -2 -140 15v82q45 -13 123 -13q66 0 104 24t38 65q0 80 -152 80h-62v57l65 161q-75 20 -109 80.5t-34 170.5v674h-155v110h155v260h132v-260h205v-110h-205v-668q0 -80 33 -116.5t105 -36.5
q56 0 72 4v-113q-28 -6 -98 -6h-5z" />
    <glyph glyph-name="Tcaron" unicode="&#x164;" horiz-adv-x="1165" 
d="M651 0h-137v1319h-476v124h1090v-124h-477v-1319zM531 1551l-277 295h130l197 -211h4l197 211h130l-277 -295h-104z" />
    <glyph glyph-name="tcaron" unicode="&#x165;" horiz-adv-x="676" 
d="M445 1618h108l-23 -428h-85v428zM171 1300h132v-260h205v-110h-205v-668q0 -80 33 -116.5t105 -36.5q56 0 72 4v-113q-28 -6 -98 -6q-131 0 -187.5 60.5t-56.5 201.5v674h-155v110h155v260z" />
    <glyph glyph-name="Tbar" unicode="&#x166;" horiz-adv-x="1165" 
d="M1128 1319h-477v-531h303v-110h-303v-678h-137v678h-303v110h303v531h-476v124h1090v-124z" />
    <glyph glyph-name="tbar" unicode="&#x167;" horiz-adv-x="584" 
d="M303 520v-258q0 -80 33 -116.5t105 -36.5q56 0 72 4v-113q-28 -6 -98 -6q-131 0 -187.5 60.5t-56.5 201.5v264h-155v107h155v303h-155v110h155v260h132v-260h205v-110h-205v-303h208v-107h-208z" />
    <glyph glyph-name="Utilde" unicode="&#x168;" horiz-adv-x="1386" 
d="M271 1443v-931q0 -184 113 -296t309 -112t309 112t113 296v931h137v-939q0 -236 -151 -381.5t-408 -145.5t-407.5 145.5t-150.5 381.5v939h136zM826 1572q-37 0 -69.5 16t-56.5 39t-46 46.5t-46 39.5t-48 16q-40 0 -60.5 -38.5t-18.5 -108.5h-94q0 111 46.5 174t127.5 63
q38 0 72 -16t57.5 -39.5t45 -46.5t45 -39t46.5 -16q78 0 78 148h94q0 -109 -47 -173.5t-126 -64.5z" />
    <glyph glyph-name="utilde" unicode="&#x169;" horiz-adv-x="1062" 
d="M948 1040v-1040h-125v193h-3q-42 -97 -132.5 -153.5t-212.5 -56.5q-169 0 -268 102.5t-99 278.5v676h133v-653q0 -138 70.5 -212t201.5 -74q136 0 219.5 88t83.5 234v617h132zM664 1204q-37 0 -69.5 16t-56.5 39t-46 46.5t-46 39.5t-48 16q-40 0 -60.5 -38.5
t-18.5 -108.5h-94q0 111 46.5 174t127.5 63q38 0 72 -16t57.5 -39.5t45 -46.5t45 -39t46.5 -16q78 0 78 148h94q0 -109 -47 -173.5t-126 -64.5z" />
    <glyph glyph-name="Umacron" unicode="&#x16a;" horiz-adv-x="1386" 
d="M271 1443v-931q0 -184 113 -296t309 -112t309 112t113 296v931h137v-939q0 -236 -151 -381.5t-408 -145.5t-407.5 145.5t-150.5 381.5v939h136zM998 1720v-92h-610v92h610z" />
    <glyph glyph-name="umacron" unicode="&#x16b;" horiz-adv-x="1062" 
d="M948 1040v-1040h-125v193h-3q-42 -97 -132.5 -153.5t-212.5 -56.5q-169 0 -268 102.5t-99 278.5v676h133v-653q0 -138 70.5 -212t201.5 -74q136 0 219.5 88t83.5 234v617h132zM795 1350v-92h-538v92h538z" />
    <glyph glyph-name="Ubreve" unicode="&#x16c;" horiz-adv-x="1386" 
d="M271 1443v-931q0 -184 113 -296t309 -112t309 112t113 296v931h137v-939q0 -236 -151 -381.5t-408 -145.5t-407.5 145.5t-150.5 381.5v939h136zM393 1822h100q6 -85 60.5 -136t139.5 -51t139.5 51t60.5 136h100q-7 -118 -88.5 -197t-211.5 -79t-211.5 79t-88.5 197z" />
    <glyph glyph-name="ubreve" unicode="&#x16d;" horiz-adv-x="1062" 
d="M948 1040v-1040h-125v193h-3q-42 -97 -132.5 -153.5t-212.5 -56.5q-169 0 -268 102.5t-99 278.5v676h133v-653q0 -138 70.5 -212t201.5 -74q136 0 219.5 88t83.5 234v617h132zM226 1477h99q0 -90 56 -144.5t146 -54.5t146 54.5t56 144.5h99q0 -129 -82.5 -207t-218.5 -78
t-218.5 78t-82.5 207z" />
    <glyph glyph-name="Uring" unicode="&#x16e;" horiz-adv-x="1386" 
d="M271 1443v-931q0 -184 113 -296t309 -112t309 112t113 296v931h137v-939q0 -236 -151 -381.5t-408 -145.5t-407.5 145.5t-150.5 381.5v939h136zM693 1513q-75 0 -128.5 53.5t-53.5 128.5t53.5 129t128.5 54t128.5 -54t53.5 -129t-53.5 -128.5t-128.5 -53.5zM693 1584
q46 0 78 32.5t32 78.5q0 47 -32 79t-78 32t-78 -32t-32 -79q0 -46 32 -78.5t78 -32.5z" />
    <glyph glyph-name="uring" unicode="&#x16f;" horiz-adv-x="1062" 
d="M948 1040v-1040h-125v193h-3q-42 -97 -132.5 -153.5t-212.5 -56.5q-169 0 -268 102.5t-99 278.5v676h133v-653q0 -138 70.5 -212t201.5 -74q136 0 219.5 88t83.5 234v617h132zM528 1158q-75 0 -128.5 53.5t-53.5 128.5t53.5 128.5t128.5 53.5t128.5 -53.5t53.5 -128.5
t-53.5 -128.5t-128.5 -53.5zM528 1229q46 0 78.5 32.5t32.5 78.5t-32.5 78.5t-78.5 32.5t-78 -32.5t-32 -78.5t32 -78.5t78 -32.5z" />
    <glyph glyph-name="Uhungarumlaut" unicode="&#x170;" horiz-adv-x="1386" 
d="M271 1443v-931q0 -184 113 -296t309 -112t309 112t113 296v931h137v-939q0 -236 -151 -381.5t-408 -145.5t-407.5 145.5t-150.5 381.5v939h136zM915 1558h-122l245 288h151zM617 1558h-122l244 288h151z" />
    <glyph glyph-name="uhungarumlaut" unicode="&#x171;" horiz-adv-x="1062" 
d="M948 1040v-1040h-125v193h-3q-42 -97 -132.5 -153.5t-212.5 -56.5q-169 0 -268 102.5t-99 278.5v676h133v-653q0 -138 70.5 -212t201.5 -74q136 0 219.5 88t83.5 234v617h132zM616 1198l209 302h143l-242 -302h-110zM331 1198l209 302h143l-242 -302h-110z" />
    <glyph glyph-name="Uogonek" unicode="&#x172;" horiz-adv-x="1386" 
d="M921 -415q-93 0 -154.5 51t-61.5 131q0 127 144 234v4q-82 -28 -156 -28q-253 0 -405.5 144t-152.5 383v939h136v-931q0 -187 114.5 -297.5t307.5 -110.5t307.5 110.5t114.5 297.5v931h137v-939q0 -145 -61 -257t-189 -215q-183 -139 -183 -238q0 -50 36 -79t92 -29
q41 0 77 9v-95q-32 -15 -103 -15z" />
    <glyph glyph-name="uogonek" unicode="&#x173;" horiz-adv-x="1062" 
d="M945 -384q-30 -14 -101 -14q-92 0 -151.5 48.5t-59.5 126.5q0 79 53.5 141t136.5 103v172h-3q-42 -97 -132.5 -153.5t-212.5 -56.5q-169 0 -268 102.5t-99 278.5v676h133v-653q0 -138 70.5 -212t201.5 -74q136 0 219.5 88t83.5 234v617h132v-1041l-7 -3q-87 -35 -141 -84
t-54 -107q0 -48 34.5 -76.5t88.5 -28.5q40 0 76 9v-93z" />
    <glyph glyph-name="Wcircumflex" unicode="&#x174;" horiz-adv-x="1854" 
d="M923 1209l-355 -1209h-127l-397 1443h142l318 -1233h6l349 1233h136l348 -1233h7l317 1233h143l-398 -1443h-126l-355 1209h-8zM875 1839h104l277 -295h-130l-197 211h-4l-197 -211h-130z" />
    <glyph glyph-name="wcircumflex" unicode="&#x175;" horiz-adv-x="1430" 
d="M1410 1040l-295 -1040h-140l-259 863h-3l-258 -863h-140l-296 1040h134l233 -892h3l259 892h134l259 -892h3l233 892h133zM767 1501l269 -302h-127l-192 216h-5l-192 -216h-127l270 302h104z" />
    <glyph glyph-name="Ycircumflex" unicode="&#x176;" horiz-adv-x="1219" 
d="M678 0h-137v624l-517 819h156l427 -685h5l427 685h156l-517 -819v-624zM557 1839h104l277 -295h-130l-197 211h-4l-197 -211h-130z" />
    <glyph glyph-name="ycircumflex" unicode="&#x177;" horiz-adv-x="950" 
d="M188 -376q-36 0 -66 6v113q24 -6 63 -6q71 0 114.5 40t78.5 138l28 78l-390 1047h142l316 -908h3l317 908h139l-409 -1103q-68 -183 -138 -248t-198 -65zM527 1500l269 -302h-127l-192 216h-5l-192 -216h-127l270 302h104z" />
    <glyph glyph-name="Ydieresis" unicode="&#x178;" horiz-adv-x="1219" 
d="M678 0h-137v624l-517 819h156l427 -685h5l427 685h156l-517 -819v-624zM439 1588q-38 0 -65 27t-27 65q0 37 27 64t65 27q37 0 64 -26.5t27 -64.5t-26.5 -65t-64.5 -27zM779 1588q-38 0 -64.5 27t-26.5 65t27 64.5t64 26.5q38 0 65 -27t27 -64q0 -38 -27 -65t-65 -27z
" />
    <glyph glyph-name="Zacute" unicode="&#x179;" horiz-adv-x="1224" 
d="M87 0v99l866 1214v6h-838v124h1011v-100l-864 -1213v-6h876v-124h-1051zM678 1558h-121l244 288h151z" />
    <glyph glyph-name="zacute" unicode="&#x17a;" horiz-adv-x="932" 
d="M80 0v98l619 829v3h-619v110h771v-100l-619 -827v-3h621v-110h-773zM520 1198h-119l219 302h146z" />
    <glyph glyph-name="Zdotaccent" unicode="&#x17b;" horiz-adv-x="1224" 
d="M87 0v99l866 1214v6h-838v124h1011v-100l-864 -1213v-6h876v-124h-1051zM612 1575q-42 0 -72 30t-30 72t30 72t72 30t72 -30t30 -72t-30 -72t-72 -30z" />
    <glyph glyph-name="zdotaccent" unicode="&#x17c;" horiz-adv-x="932" 
d="M80 0v98l619 829v3h-619v110h771v-100l-619 -827v-3h621v-110h-773zM466 1206q-43 0 -73.5 30.5t-30.5 73.5t30.5 73.5t73.5 30.5t73.5 -30.5t30.5 -73.5t-30.5 -73.5t-73.5 -30.5z" />
    <glyph glyph-name="Zcaron" unicode="&#x17d;" horiz-adv-x="1224" 
d="M87 0v99l866 1214v6h-838v124h1011v-100l-864 -1213v-6h876v-124h-1051zM560 1551l-277 295h130l197 -211h4l197 211h130l-277 -295h-104z" />
    <glyph glyph-name="zcaron" unicode="&#x17e;" horiz-adv-x="932" 
d="M80 0v98l619 829v3h-619v110h771v-100l-619 -827v-3h621v-110h-773zM518 1198h-104l-270 302h127l192 -219h5l192 219h127z" />
    <glyph glyph-name="uni04D8" unicode="&#x4d8;" horiz-adv-x="1411" 
d="M697 -30q-282 0 -446.5 190t-166.5 518v67h1094v23q2 258 -137 418t-367 160q-153 0 -262 -65t-163 -191h-140q62 178 213.5 280.5t353.5 102.5q298 0 473 -202.5t175 -547.5q0 -340 -172 -546.5t-455 -206.5zM700 97q196 0 325.5 143.5t149.5 382.5h-942
q12 -245 137 -385.5t330 -140.5z" />
    <glyph glyph-name="uni04D8" unicode="&#x18f;" horiz-adv-x="1411" 
d="M697 -30q-282 0 -446.5 190t-166.5 518v67h1094v23q2 258 -137 418t-367 160q-153 0 -262 -65t-163 -191h-140q62 178 213.5 280.5t353.5 102.5q298 0 473 -202.5t175 -547.5q0 -340 -172 -546.5t-455 -206.5zM700 97q196 0 325.5 143.5t149.5 382.5h-942
q12 -245 137 -385.5t330 -140.5z" />
    <glyph glyph-name="florin" unicode="&#x192;" horiz-adv-x="1219" 
d="M1180 1427v-121q-75 40 -180 40q-118 0 -182.5 -57.5t-83.5 -182.5l-39 -254h389v-111h-406l-63 -406q-28 -182 -120.5 -269.5t-255.5 -87.5q-116 0 -199 43v127q34 -21 87.5 -35t99.5 -14q115 0 176 59.5t81 192.5l60 390h-361v111h378l41 263q56 351 383 351
q119 0 195 -39z" />
    <glyph glyph-name="Ohorn" unicode="&#x1a0;" horiz-adv-x="1465" 
d="M732 -23q-302 0 -478.5 200.5t-176.5 543.5t177 544t478 201q69 0 194.5 -17t209.5 -17q79 0 109.5 23t30.5 84v129h122v-168q0 -81 -52.5 -125.5t-149.5 -44.5h-72v-5q119 -73 191.5 -239.5t72.5 -364.5q0 -343 -177 -543.5t-479 -200.5zM732 104q237 0 376.5 167
t139.5 450q0 285 -139.5 451.5t-376.5 166.5t-376 -167t-139 -451t139 -450.5t376 -166.5z" />
    <glyph glyph-name="ohorn" unicode="&#x1a1;" horiz-adv-x="1103" 
d="M536 100q156 0 248 112.5t92 307.5t-92.5 307.5t-247.5 112.5t-247 -112t-92 -308t92 -308t247 -112zM1010 520q0 -245 -130 -391t-344 -146t-344 146t-130 391t130 391t344 146q66 0 149 -14t123 -14q63 0 87.5 21t24.5 74v128h121v-167q0 -69 -39.5 -108.5
t-108.5 -39.5h-47v-4q78 -64 121 -170.5t43 -242.5z" />
    <glyph glyph-name="Uhorn" unicode="&#x1af;" horiz-adv-x="1531" 
d="M693 -23q-254 0 -406 143.5t-152 383.5v939h136v-931q0 -185 115.5 -296.5t306.5 -111.5q192 0 307 111.5t115 296.5v931h163q101 0 101 94v158h122v-182q0 -80 -50 -125t-139 -45h-60v-839q0 -240 -152.5 -383.5t-406.5 -143.5z" />
    <glyph glyph-name="uhorn" unicode="&#x1b0;" horiz-adv-x="1165" 
d="M820 193q-42 -97 -132.5 -153.5t-212.5 -56.5q-169 0 -268 102.5t-99 278.5v676h133v-653q0 -138 70.5 -212t201.5 -74q136 0 219.5 88t83.5 234v617h138q97 0 97 90v138h121v-162q0 -78 -48.5 -121.5t-135.5 -43.5h-40v-941h-125v193h-3z" />
    <glyph glyph-name="uni01C4" unicode="&#x1c4;" horiz-adv-x="2594" 
d="M135 1443h468q324 0 504 -189.5t180 -531.5q0 -343 -179.5 -532.5t-504.5 -189.5h-468v1443zM272 1319v-1195h323q266 0 409.5 155t143.5 442q0 288 -143.5 443t-409.5 155h-323zM1457 0v99l866 1214v6h-838v124h1011v-100l-864 -1213v-6h876v-124h-1051zM1930 1551
l-277 295h130l197 -211h4l197 211h130l-277 -295h-104z" />
    <glyph glyph-name="uni01C5" unicode="&#x1c5;" horiz-adv-x="2334" 
d="M135 1443h468q324 0 504 -189.5t180 -531.5q0 -343 -179.5 -532.5t-504.5 -189.5h-468v1443zM272 1319v-1195h323q266 0 409.5 155t143.5 442q0 288 -143.5 443t-409.5 155h-323zM1450 0v98l619 829v3h-619v110h771v-100l-619 -827v-3h621v-110h-773zM1888 1198h-104
l-270 302h127l192 -219h5l192 219h127z" />
    <glyph glyph-name="uni01C6" unicode="&#x1c6;" horiz-adv-x="2121" 
d="M507 -17q-198 0 -321.5 148t-123.5 389q0 242 122.5 389.5t319.5 147.5q123 0 218.5 -63.5t137.5 -167.5h3v617h133v-1443h-126v220h-3q-45 -107 -141 -172t-219 -65zM530 940q-150 0 -241 -115t-91 -305t91 -305t241 -115q149 0 241.5 116t92.5 304t-92.5 304
t-241.5 116zM1237 0v98l619 829v3h-619v110h771v-100l-619 -827v-3h621v-110h-773zM1675 1198h-104l-270 302h127l192 -219h5l192 219h127z" />
    <glyph glyph-name="uni01C7" unicode="&#x1c7;" horiz-adv-x="2037" 
d="M994 124v-124h-859v1443h136v-1319h723zM1092 331h135q5 -104 77.5 -169t184.5 -65q132 0 204.5 78t72.5 222v1046h136v-1048q0 -199 -109.5 -312t-303.5 -113q-173 0 -284.5 101t-112.5 260z" />
    <glyph glyph-name="uni01C8" unicode="&#x1c8;" horiz-adv-x="1439" 
d="M994 124v-124h-859v1443h136v-1319h723zM1305 1040v-1106q0 -150 -73 -219.5t-226 -69.5q-31 0 -32 1v112h27q93 0 132.5 40t39.5 134v1108h132zM1239 1250q-36 0 -62 25.5t-26 62.5q0 36 26 61.5t62 25.5q37 0 63 -25.5t26 -61.5q0 -37 -26 -62.5t-63 -25.5z" />
    <glyph glyph-name="uni01C9" unicode="&#x1c9;" horiz-adv-x="779" 
d="M123 0v1443h132v-1443h-132zM645 1040v-1106q0 -150 -73 -219.5t-226 -69.5q-31 0 -32 1v112h27q93 0 132.5 40t39.5 134v1108h132zM579 1250q-36 0 -62 25.5t-26 62.5q0 36 26 61.5t62 25.5q37 0 63 -25.5t26 -61.5q0 -37 -26 -62.5t-63 -25.5z" />
    <glyph glyph-name="uni01CA" unicode="&#x1ca;" horiz-adv-x="2380" 
d="M270 0h-135v1443h135l846 -1205h7v1205h135v-1443h-132l-849 1206h-7v-1206zM1435 331h135q5 -104 77.5 -169t184.5 -65q132 0 204.5 78t72.5 222v1046h136v-1048q0 -199 -109.5 -312t-303.5 -113q-173 0 -284.5 101t-112.5 260z" />
    <glyph glyph-name="uni01CB" unicode="&#x1cb;" horiz-adv-x="1783" 
d="M270 0h-135v1443h135l846 -1205h7v1205h135v-1443h-132l-849 1206h-7v-1206zM1648 1040v-1106q0 -150 -73 -219.5t-226 -69.5q-31 0 -32 1v112h27q93 0 132.5 40t39.5 134v1108h132zM1582 1250q-36 0 -62 25.5t-26 62.5q0 36 26 61.5t62 25.5q37 0 63 -25.5t26 -61.5
q0 -37 -26 -62.5t-63 -25.5z" />
    <glyph glyph-name="uni01CC" unicode="&#x1cc;" horiz-adv-x="1487" 
d="M114 0v1040h125v-192h3q41 97 130.5 153t212.5 56q171 0 269.5 -103t98.5 -280v-674h-132v653q0 136 -71.5 211t-202.5 75q-135 0 -218 -89t-83 -234v-616h-132zM1352 1040v-1106q0 -150 -73 -219.5t-226 -69.5q-31 0 -32 1v112h27q93 0 132.5 40t39.5 134v1108h132z
M1286 1250q-36 0 -62 25.5t-26 62.5q0 36 26 61.5t62 25.5q37 0 63 -25.5t26 -61.5q0 -37 -26 -62.5t-63 -25.5z" />
    <glyph glyph-name="Acaron" unicode="&#x1cd;" horiz-adv-x="1262" 
d="M1094 0l-160 442h-606l-160 -442h-145l540 1443h136l539 -1443h-144zM628 1274l-259 -714h524l-259 714h-6zM579 1551l-277 295h130l197 -211h4l197 211h130l-277 -295h-104z" />
    <glyph glyph-name="acaron" unicode="&#x1ce;" horiz-adv-x="1014" 
d="M449 97q137 0 231 85t94 209v115l-308 -21q-123 -8 -189 -59.5t-66 -137.5q0 -85 66 -138t172 -53zM422 -17q-154 0 -249.5 84.5t-95.5 220.5q0 134 96.5 212t276.5 90l324 20v90q0 113 -68 176.5t-189 63.5q-114 0 -185.5 -53t-88.5 -148h-128q11 142 120.5 230
t284.5 88q178 0 282 -93t104 -252v-712h-126v198h-3q-43 -97 -141 -156t-214 -59zM564 1199h-104l-270 302h127l192 -219h5l192 219h127z" />
    <glyph glyph-name="Icaron" unicode="&#x1cf;" horiz-adv-x="406" 
d="M271 0h-136v1443h136v-1443zM151 1551l-277 295h130l197 -211h4l197 211h130l-277 -295h-104z" />
    <glyph glyph-name="icaron" unicode="&#x1d0;" horiz-adv-x="378" 
d="M123 0v1040h132v-1040h-132zM241 1199h-104l-270 302h127l192 -219h5l192 219h127z" />
    <glyph glyph-name="Ocaron" unicode="&#x1d1;" horiz-adv-x="1465" 
d="M732 1466q302 0 479 -201t177 -544t-177 -543.5t-479 -200.5t-478.5 200.5t-176.5 543.5t177 544t478 201zM732 1339q-237 0 -376 -167t-139 -451t139 -450.5t376 -166.5t376.5 167t139.5 450q0 284 -139.5 451t-376.5 167zM680 1551l-277 295h130l197 -211h4l197 211
h130l-277 -295h-104z" />
    <glyph glyph-name="ocaron" unicode="&#x1d2;" horiz-adv-x="1072" 
d="M536 -17q-214 0 -344 145.5t-130 391.5t130.5 391.5t343.5 145.5q214 0 344 -145.5t130 -391.5t-130 -391.5t-344 -145.5zM536 100q155 0 247.5 112t92.5 308t-92.5 308t-247.5 112t-247 -112t-92 -308t92 -308t247 -112zM588 1198h-104l-270 302h127l192 -219h5l192 219
h127z" />
    <glyph glyph-name="Ucaron" unicode="&#x1d3;" horiz-adv-x="1386" 
d="M271 1443v-931q0 -184 113 -296t309 -112t309 112t113 296v931h137v-939q0 -236 -151 -381.5t-408 -145.5t-407.5 145.5t-150.5 381.5v939h136zM641 1551l-277 295h130l197 -211h4l197 211h130l-277 -295h-104z" />
    <glyph glyph-name="ucaron" unicode="&#x1d4;" horiz-adv-x="1062" 
d="M948 1040v-1040h-125v193h-3q-42 -97 -132.5 -153.5t-212.5 -56.5q-169 0 -268 102.5t-99 278.5v676h133v-653q0 -138 70.5 -212t201.5 -74q136 0 219.5 88t83.5 234v617h132zM580 1198h-104l-270 302h127l192 -219h5l192 219h127z" />
    <glyph glyph-name="Udieresismacron" unicode="&#x1d5;" horiz-adv-x="1386" 
d="M271 1443v-931q0 -184 113 -296t309 -112t309 112t113 296v931h137v-939q0 -236 -151 -381.5t-408 -145.5t-407.5 145.5t-150.5 381.5v939h136zM529 1731q36 0 61.5 -26t25.5 -63t-25.5 -62.5t-61.5 -25.5t-62 25.5t-26 62.5t26 63t62 26zM388 1979h610v-91h-610v91z
M857 1731q36 0 62 -26t26 -63t-26 -62.5t-62 -25.5t-61.5 25.5t-25.5 62.5t25.5 63t61.5 26z" />
    <glyph glyph-name="udieresismacron" unicode="&#x1d6;" horiz-adv-x="1062" 
d="M948 1040v-1040h-125v193h-3q-42 -97 -132.5 -153.5t-212.5 -56.5q-169 0 -268 102.5t-99 278.5v676h133v-653q0 -138 70.5 -212t201.5 -74q136 0 219.5 88t83.5 234v617h132zM355 1172q-38 0 -65.5 27t-27.5 65t27.5 65.5t65.5 27.5t65.5 -27.5t27.5 -65.5t-27.5 -65
t-65.5 -27zM701 1172q-38 0 -65.5 27t-27.5 65t27.5 65.5t65.5 27.5t65.5 -27.5t27.5 -65.5t-27.5 -65t-65.5 -27zM795 1620v-92h-538v92h538z" />
    <glyph glyph-name="Udieresisacute" unicode="&#x1d7;" horiz-adv-x="1386" 
d="M271 1443v-931q0 -184 113 -296t309 -112t309 112t113 296v931h137v-939q0 -236 -151 -381.5t-408 -145.5t-407.5 145.5t-150.5 381.5v939h136zM623 1805l183 211h134l-200 -211h-117zM529 1554q-36 0 -62 25.5t-26 62.5t26 63t62 26t61.5 -26t25.5 -63t-25.5 -62.5
t-61.5 -25.5zM857 1554q-36 0 -61.5 25.5t-25.5 62.5t25.5 63t61.5 26t62 -26t26 -63t-26 -62.5t-62 -25.5z" />
    <glyph glyph-name="udieresisacute" unicode="&#x1d8;" horiz-adv-x="1062" 
d="M948 1040v-1040h-125v193h-3q-42 -97 -132.5 -153.5t-212.5 -56.5q-169 0 -268 102.5t-99 278.5v676h133v-653q0 -138 70.5 -212t201.5 -74q136 0 219.5 88t83.5 234v617h132zM450 1483l224 300h129l-241 -300h-112zM358 1173q-38 0 -65 27t-27 65q0 37 27 64t65 27
t64.5 -27t26.5 -64q0 -38 -26.5 -65t-64.5 -27zM698 1173q-38 0 -64.5 27t-26.5 65q0 37 26.5 64t64.5 27t65 -27t27 -64q0 -38 -27 -65t-65 -27z" />
    <glyph glyph-name="Udieresiscaron" unicode="&#x1d9;" horiz-adv-x="1386" 
d="M271 1443v-931q0 -184 113 -296t309 -112t309 112t113 296v931h137v-939q0 -236 -151 -381.5t-408 -145.5t-407.5 145.5t-150.5 381.5v939h136zM635 1795l-265 223h138l183 -153h4l183 153h138l-265 -223h-116zM529 1731q36 0 61.5 -26t25.5 -63t-25.5 -62.5t-61.5 -25.5
t-62 25.5t-26 62.5t26 63t62 26zM857 1731q36 0 62 -26t26 -63t-26 -62.5t-62 -25.5t-61.5 25.5t-25.5 62.5t25.5 63t61.5 26z" />
    <glyph glyph-name="udieresiscaron" unicode="&#x1da;" horiz-adv-x="1062" 
d="M948 1040v-1040h-125v193h-3q-42 -97 -132.5 -153.5t-212.5 -56.5q-169 0 -268 102.5t-99 278.5v676h133v-653q0 -138 70.5 -212t201.5 -74q136 0 219.5 88t83.5 234v617h132zM355 1172q-38 0 -65.5 27t-27.5 65t27.5 65.5t65.5 27.5t65.5 -27.5t27.5 -65.5t-27.5 -65
t-65.5 -27zM701 1172q-38 0 -65.5 27t-27.5 65t27.5 65.5t65.5 27.5t65.5 -27.5t27.5 -65.5t-27.5 -65t-65.5 -27zM581 1468h-106l-269 284h128l192 -203h4l192 203h128z" />
    <glyph glyph-name="Udieresisgrave" unicode="&#x1db;" horiz-adv-x="1386" 
d="M271 1443v-931q0 -184 113 -296t309 -112t309 112t113 296v931h137v-939q0 -236 -151 -381.5t-408 -145.5t-407.5 145.5t-150.5 381.5v939h136zM756 1805h-117l-200 211h134zM529 1554q-36 0 -62 25.5t-26 62.5t26 63t62 26t61.5 -26t25.5 -63t-25.5 -62.5t-61.5 -25.5z
M857 1554q-36 0 -61.5 25.5t-25.5 62.5t25.5 63t61.5 26t62 -26t26 -63t-26 -62.5t-62 -25.5z" />
    <glyph glyph-name="udieresisgrave" unicode="&#x1dc;" horiz-adv-x="1062" 
d="M948 1040v-1040h-125v193h-3q-42 -97 -132.5 -153.5t-212.5 -56.5q-169 0 -268 102.5t-99 278.5v676h133v-653q0 -138 70.5 -212t201.5 -74q136 0 219.5 88t83.5 234v617h132zM606 1483h-112l-241 300h129zM358 1173q-38 0 -65 27t-27 65q0 37 27 64t65 27t64.5 -27
t26.5 -64q0 -38 -26.5 -65t-64.5 -27zM698 1173q-38 0 -64.5 27t-26.5 65q0 37 26.5 64t64.5 27t65 -27t27 -64q0 -38 -27 -65t-65 -27z" />
    <glyph glyph-name="uni04D9" unicode="&#x4d9;" horiz-adv-x="1059" 
d="M522 98q141 0 230.5 96.5t98.5 259.5h-642q1 -163 86.5 -259.5t226.5 -96.5zM220 779h-132q43 130 155 204t271 74q218 0 345.5 -144.5t127.5 -391.5q0 -245 -126.5 -391.5t-340.5 -146.5q-208 0 -328 139.5t-120 381.5l2 56h777v6q0 169 -93.5 272.5t-243.5 103.5
q-213 0 -294 -163z" />
    <glyph glyph-name="uni04D9" unicode="&#x259;" horiz-adv-x="1059" 
d="M522 98q141 0 230.5 96.5t98.5 259.5h-642q1 -163 86.5 -259.5t226.5 -96.5zM220 779h-132q43 130 155 204t271 74q218 0 345.5 -144.5t127.5 -391.5q0 -245 -126.5 -391.5t-340.5 -146.5q-208 0 -328 139.5t-120 381.5l2 56h777v6q0 169 -93.5 272.5t-243.5 103.5
q-213 0 -294 -163z" />
    <glyph glyph-name="uni04D9" unicode="&#x1dd;" horiz-adv-x="1059" 
d="M522 98q141 0 230.5 96.5t98.5 259.5h-642q1 -163 86.5 -259.5t226.5 -96.5zM220 779h-132q43 130 155 204t271 74q218 0 345.5 -144.5t127.5 -391.5q0 -245 -126.5 -391.5t-340.5 -146.5q-208 0 -328 139.5t-120 381.5l2 56h777v6q0 169 -93.5 272.5t-243.5 103.5
q-213 0 -294 -163z" />
    <glyph glyph-name="Adieresismacron" unicode="&#x1de;" horiz-adv-x="1262" 
d="M1094 0l-160 442h-606l-160 -442h-145l540 1443h136l539 -1443h-144zM628 1274l-259 -714h524l-259 714h-6zM467 1731q36 0 61.5 -26t25.5 -63t-25.5 -62.5t-61.5 -25.5t-62 25.5t-26 62.5t26 63t62 26zM326 1979h610v-91h-610v91zM795 1731q36 0 62 -26t26 -63
t-26 -62.5t-62 -25.5t-61.5 25.5t-25.5 62.5t25.5 63t61.5 26z" />
    <glyph glyph-name="adieresismacron" unicode="&#x1df;" horiz-adv-x="1014" 
d="M449 97q137 0 231 85t94 209v115l-308 -21q-123 -8 -189 -59.5t-66 -137.5q0 -85 66 -138t172 -53zM422 -17q-154 0 -249.5 84.5t-95.5 220.5q0 134 96.5 212t276.5 90l324 20v90q0 113 -68 176.5t-189 63.5q-114 0 -185.5 -53t-88.5 -148h-128q11 142 120.5 230
t284.5 88q178 0 282 -93t104 -252v-712h-126v198h-3q-43 -97 -141 -156t-214 -59zM339 1173q-38 0 -65.5 27t-27.5 65t27.5 65.5t65.5 27.5t65.5 -27.5t27.5 -65.5t-27.5 -65t-65.5 -27zM685 1173q-38 0 -65.5 27t-27.5 65t27.5 65.5t65.5 27.5t65.5 -27.5t27.5 -65.5
t-27.5 -65t-65.5 -27zM779 1621v-92h-538v92h538z" />
    <glyph glyph-name="Adotmacron" unicode="&#x1e0;" horiz-adv-x="1262" 
d="M1094 0l-160 442h-606l-160 -442h-145l540 1443h136l539 -1443h-144zM628 1274l-259 -714h524l-259 714h-6zM631 1568q-41 0 -70 29t-29 70q0 40 29 68.5t70 28.5t70 -28.5t29 -68.5q0 -41 -29 -70t-70 -29zM936 1979v-91h-610v91h610z" />
    </font>
</defs>
</svg>
